Watch Bellator 194 Nelson vs Mitrione II Main Card DVB RUSS

Watch Bellator 194 Nelson vs Mitrione II Main Card DVB RUSS

 

 

 

 

 

 

wwe

 

 

 

 

 

 

Complete name : Bellator 194 Main Card DVB RUSS.ts
Format : BDAV
Format/Info : Blu-ray Video
File size : 2.85 GiB
Duration : 2h 48mn
Overall bit rate : 2 428 Kbps

Video
ID : 331 (0x14B)
Menu ID : 590 (0x24E)
Format : AVC
Format/Info : Advanced Video Codec
Codec ID : 27
Duration : 2h 48mn
Bit rate : 2 131 Kbps
Width : 720 pixels
Height : 576 pixels
Display aspect ratio : 16:9
Frame rate : 25.000 fps
Standard : Component
Color space : YUV
Chroma subsampling : 4:2:0
Bit depth : 8 bits
Scan type : Interlaced
Scan order : Top Field First
Bits/(Pixel*Frame) : 0.206
Stream size : 2.50 GiB (88%)
Audio
ID : 420 (0x1A4)
Menu ID : 590 (0x24E)
Format version : Version 1
Format profile : Layer 2
Codec ID : 4
Duration : 2h 48mn
Bit rate mode : Constant
Bit rate : 192 Kbps
Channel(s) : 2 channels
Sampling rate : 48.0 KHz
Compression mode : Lossy
Delay relative to video : 8ms
Stream size : 231 MiB (8%)
Language : Russian

Menu
ID : 120 (0x78)
Menu ID : 590 (0x24E)
Duration : 2h 48mn
List : 331 (0x14B) (AVC) / 420 (0x1A4) (MPEG Audio, Russian)
Language : / Russian

 

 

 

 

 

 

 

 

Watch Bellator 194 Nelson vs Mitrione II Main Card DVB RUSS

 

 

 

 

Watch online

 

 

Waiting finish converting video

 

 

Server 1

 

 

 

 

 

 

 

 

 

 

 

 

 

 

 

 

 

 

 

 

Server 2

 

 

 

 

 

 

 

 

 

 

 

 

 

 

 

 

 

 

 

 

Uploaded By Site DX-TV.com

 

 

 

open rar file to see this password

 

 

 

 

The password is : DX-TV.com

 

 

 

 

 

 

 

Uploaded.net + rapidgator.net

 

 

 

 

 

 

 

http://shrt10.com/3fl3D

 

 

 

 

http://shrt10.com/jmGVJ

 

 

 

 

 

 

 

 

Watch Bellator 194 Nelson vs Mitrione II Main Card DVB RUSS

Support HVIPS

Please Disable Ad-Block To View This site. just help us to continue this work