Watch Bellator 193 Prelims HDTV Ebi /720p

Watch Bellator 193 Prelims HDTV Ebi /720p

 

 

 

 

 

 

wwe

 

 

 

 

 

 

Bellator.193.Prelims.HDTV.x264-Ebi
Release Info:
Show Name: Bellator 193 Prelims
Genre: MMA
Release Date: 2018-01-27(UK)
Air Date: 2018-01-26(US)
Source : HDTV
Container: MP4
Video: x264, 1452Kbps, 29,970fps, 712×400, 16:9
Audio: AAC, 160Kbps, 48KHz, 2ch
Size: 566 MB
Runtime: 54mn 26s
 

 

 

 

 

 

 
Complete name : Bellator.193.Prelims.720p.HDTV.x264-Ebi.mp4
Format : MPEG-4
Format profile : Base Media / Version 2
Codec ID : mp42
File size : 1.77 GiB
Duration : 54mn 26s
Overall bit rate : 4 659 Kbps

Video
ID : 1
Format : AVC
Format/Info : Advanced Video Codec
Codec ID : avc1
Codec ID/Info : Advanced Video Coding
Duration : 54mn 26s
Bit rate mode : Variable
Bit rate : 4 500 Kbps
Width : 1 280 pixels
Height : 720 pixels
Display aspect ratio : 16:9
Frame rate mode : Constant
Frame rate : 29.970 fps
Color space : YUV
Chroma subsampling : 4:2:0
Bit depth : 8 bits
Scan type : Progressive
Bits/(Pixel*Frame) : 0.163
Stream size : 1.70 GiB (96%)

Audio
ID : 2
Format : AAC
Format/Info : Advanced Audio Codec
Format profile : LC
Codec ID : 40
Duration : 54mn 26s
Bit rate mode : Variable
Bit rate : 192 Kbps
Channel(s) : 2 channels
Channel positions : Front: L R
Sampling rate : 48.0 KHz
Compression mode : Lossy
Stream size : 74.9 MiB (4%)
Title : Stereo

 

 

 

 

 

 

 

 

 

 

 

Watch Bellator 193 Prelims HDTV Ebi /720p

 

 

 

 

Watch online

 

 

Waiting finish converting video

 

 

Server 1

 

 

 

 

 

 

 

 

 

 

 

 

 

 

 

 

 

 

Server 2

 

 

 

 

 

 

 

 

 

 

 

 

 

 

 

Uploaded By Site DX-TV.com

 

 

 

open rar file to see this password

 

 

 

 

The password is : DX-TV.com

 

 

 

 

400p+720p

 

 

 

 

 

Uploaded.net + rapidgator.net

 

 

 

 

 

 

http://shrt10.com/b31pD

 

 

http://shrt10.com/7EZEy

 

 

http://shrt10.com/7iNgsgtj

 

 

http://shrt10.com/Oxf29e

 

 

 

 

 

 

Watch Bellator 193 Prelims HDTV Ebi /720p