Watch Bellator 193 Larkin vs Gonzalez HDTV Ebi /720p

Watch Bellator 193 Larkin vs Gonzalez HDTV Ebi /720p

 

 

 

 

 

 

wwe

 

 

 

 

 

 

Bellator.193.Larkin.vs.Gonzalez.HDTV.x264-Ebi
Release Info:
Show Name: Bellator 193 Larkin vs Gonzalez
Genre: MMA
Release Date: 2018-01-27(UK)
Air Date: 2018-01-26(US)
Source : HDTV
Container: MP4
Video: x264, 1453Kbps, 29,970fps, 712×400, 16:9
Audio: AAC, 160Kbps, 48KHz, 2ch
Size: 1.31 GB
Runtime: 2h 09mn
 

 

 

 

 

 

 

 
Complete name : Bellator.193.Larkin.vs.Gonzalez.720p.HDTV.x264-Ebi.mp4
Format : MPEG-4
Format profile : Base Media / Version 2
Codec ID : mp42
File size : 4.22 GiB
Duration : 2h 9mn
Overall bit rate : 4 680 Kbps

Video
ID : 1
Format : AVC
Format/Info : Advanced Video Codec
Codec ID : avc1
Codec ID/Info : Advanced Video Coding
Duration : 2h 9mn
Bit rate mode : Variable
Bit rate : 4 500 Kbps
Width : 1 280 pixels
Height : 720 pixels
Display aspect ratio : 16:9
Frame rate mode : Constant
Frame rate : 29.970 fps
Color space : YUV
Chroma subsampling : 4:2:0
Bit depth : 8 bits
Scan type : Progressive
Bits/(Pixel*Frame) : 0.163
Stream size : 4.05 GiB (96%)

Audio
ID : 2
Format : AAC
Format/Info : Advanced Audio Codec
Format profile : LC
Codec ID : 40
Duration : 2h 9mn
Bit rate mode : Variable
Bit rate : 175 Kbps
Channel(s) : 2 channels
Channel positions : Front: L R
Sampling rate : 48.0 KHz
Compression mode : Lossy
Stream size : 161 MiB (4%)
Title : Stereo

 

 

 

 

 

 

 

 

 

Watch Bellator 193 Larkin vs Gonzalez HDTV Ebi /720p

 

 

 

 

Watch online

 

 

Waiting finish converting video

 

 

Server 1

 

 

 

 

 

 

 

 

 

 

 

 

 

 

 

 

 

 

Server 2

 

 

 

 

 

 

 

 


 

 

 

 

 

Uploaded By Site DX-TV.com

 

 

 

open rar file to see this password

 

 

 

 

The password is : DX-TV.com

 

 

 

 

400p+720p

 

 

 

 

 

Uploaded.net + rapidgator.net

 

 

 

 

 

 

 

 

 

http://shrt10.com/oLIS8x

 

 

http://shrt10.com/ZXn8Gxl

 

 

http://shrt10.com/k2EKTGIw

 

 

http://shrt10.com/Oh6Ea

 

 

http://shrt10.com/YNYS0QkB

 

 

http://shrt10.com/ewPQ8ll

 

 

 

 

 

 

 

 

 

 

 

 

Watch Bellator 193 Larkin vs Gonzalez HDTV Ebi /720p

Support HVIPS

Please Disable Ad-Block To View This site. just help us to continue this work