Watch Bellator 192 HDTV x264 DX-TV /720p

Watch Bellator 192 HDTV x264 DX-TV /720p

 

 

 

 

 

 

wwe

 

 

 

 

 

 

 

Complete name :Bellator.192.HDTV.x264.DX-TV.mp4
Format : MPEG-4
Codec ID : mp42
File size : 1.80 GiB
Duration : 2h 43mn
Overall bit rate : 1 569 Kbps

Video
ID : 1
Format : AVC
Format/Info : Advanced Video Codec
Codec ID : avc1
Codec ID/Info : Advanced Video Coding
Duration : 2h 43mn
Bit rate mode : Variable
Bit rate : 1 400 Kbps
Width : 720 pixels
Height : 400 pixels
Display aspect ratio : 16:9
Frame rate mode : Constant
Frame rate : 30.000 fps
Color space : YUV
Chroma subsampling : 4:2:0
Bit depth : 8 bits
Scan type : Progressive
Bits/(Pixel*Frame) : 0.162
Stream size : 1.61 GiB (89%)

Audio
ID : 2
Format : AAC
Format/Info : Advanced Audio Codec
Format profile : LC
Codec ID : 40
Duration : 2h 43mn
Bit rate mode : Variable
Bit rate : 160 Kbps
Channel(s) : 2 channels
Channel positions : Front: L R
Sampling rate : 48.0 KHz
Compression mode : Lossy
Stream size : 188 MiB (10%)
Title : Stereo

 

 

 

 

 

 

 

 

 

 

 

 
Complete name : Bellator.192.720p.HDTV.x264-KYR.mkv
Format : Matroska
File size : 4.83 GiB
Duration : 2h 43mn
Overall bit rate : 4 222 Kbps

Video
ID : 1
Format : AVC
Format/Info : Advanced Video Codec
Codec ID : V_MPEG4/ISO/AVC
Duration : 2h 43mn
Bit rate : 3 754 Kbps
Width : 1 280 pixels
Height : 720 pixels
Display aspect ratio : 16:9
Frame rate : 59.940 fps
Color space : YUV
Chroma subsampling : 4:2:0
Bit depth : 8 bits
Scan type : Progressive
Bits/(Pixel*Frame) : 0.068
Stream size : 4.30 GiB (89%)

Audio
ID : 2
Format : AC-3
Format/Info : Audio Coding 3
Mode extension : CM (complete main)
Codec ID : A_AC3
Duration : 2h 43mn
Bit rate mode : Constant
Bit rate : 384 Kbps
Channel(s) : 2 channels
Channel positions : Front: L R
Sampling rate : 48.0 KHz
Bit depth : 16 bits
Compression mode : Lossy
Stream size : 450 MiB (9%)

 

 

 

 

 

 

 

 

 

 

Watch Bellator 192 HDTV x264 DX-TV /720p

 

 

 

 

Watch online

 

 

Waiting finish converting video

 

 

Server 1

 

 

 

 

 

 

 

 

 

 

 

 

 

 

 

 

 

 

 

 

 

 

 

 

Srver 2

 

 

 

 

 

 

 

 

 

 

 

 

 


 

 

 

 

 

 

 

 

 

Uploaded By Site DX-TV.com

 

 

 

open rar file to see this password

 

 

 

 

The password is : DX-TV.com

 

 

 

 

400p+720p

 

 

 

 

Uploaded.net + rapidgator.net

 

 

 

 

 

 

 

http://shrt10.com/huPud

 

 

http://shrt10.com/Ug4tQb

 

 

http://shrt10.com/6KSWn

 

 

http://shrt10.com/996×77

 

 

 

 

 

 

 

 

 

 

 

 

 

 

 

 

 

Watch Bellator 192 HDTV x264 DX-TV /720p