Watch Bar Wrestling 6 Head Of Household 2017 11 09 WEB /720p

Watch Bar Wrestling 6 Head Of Household 2017 11 09 WEB /720p

 

 

 

 

 

 

wwe

 

 

 

 

 

 

 

Complete name : Bar Wrestling 6 Head Of Household (2017.11.09) (720p).mp4
Format : MPEG-4
Format profile : Base Media
Codec ID : isom
File size : 2.12 GiB
Duration : 1h 53mn
Overall bit rate : 2 672 Kbps

Video
ID : 2
Format : AVC
Duration : 1h 53mn
Bit rate mode : Variable
Bit rate : 2 590 Kbps
Width : 1 280 pixels
Height : 720 pixels
Display aspect ratio : 16:9
Frame rate mode : Constant
Frame rate : 29.970 fps
Color space : YUV
Chroma subsampling : 4:2:0
Bit depth : 8 bits
Scan type : Progressive
Bits/(Pixel*Frame) : 0.094
Stream size : 2.05 GiB (97%)

Audio
ID : 1
Format : AAC
Format profile : LC
Codec ID : 40
Duration : 1h 53mn
Bit rate mode : Constant
Bit rate : 74.9 Kbps
Channel(s) : 2 channels
Channel positions : Front: L R
Sampling rate : 48.0 KHz
Compression mode : Lossy
Stream size : 60.8 MiB (3%)

 

 

 

 

 
Complete name : Bar Wrestling 6 Head Of Household (2017.11.09) (480p).mp4
Format : MPEG-4
Format profile : Base Media
Codec ID : isom
File size : 1.25 GiB
Duration : 1h 53mn
Overall bit rate : 1 577 Kbps

Video
ID : 2
Format : AVC
Duration : 1h 53mn
Bit rate mode : Variable
Bit rate : 1 495 Kbps
Width : 854 pixels
Height : 480 pixels
Display aspect ratio : 16:9
Frame rate mode : Constant
Frame rate : 29.970 fps
Color space : YUV
Chroma subsampling : 4:2:0
Bit depth : 8 bits
Scan type : Progressive
Bits/(Pixel*Frame) : 0.122
Stream size : 1.19 GiB (95%)

Audio
ID : 1
Format : AAC
Format profile : LC
Codec ID : 40
Duration : 1h 53mn
Bit rate mode : Constant
Bit rate : 74.9 Kbps
Channel(s) : 2 channels
Channel positions : Front: L R
Sampling rate : 48.0 KHz
Compression mode : Lossy

 

 

 

 

 

 

 

 

 

 

Watch Bar Wrestling 6 Head Of Household 2017 11 09 WEB /720p

 

 

 

 

Watch online

 

 

Waiting finish converting video

 

 

Server 1

 

 

 

 

 

 

 

 

 

 

 

 

 

 

 

 

 

 

 

 

 

 

Srver 2

 

 

 

 

 

 

 

 

 


 

 

 

 

 

 

 

Server 3

 

 

 

 

 

 

 

 


 

 

 

 

 

 

 

 

Uploaded By Site DX-TV.com

 

 

 

open rar file to see this password

 

 

 

 

The password is : DX-TV.com

 

 

 

 

400p+720p

 

 

 

 

Uploaded.net

 

 

 

 

 

 

 

http://shrt10.com/qO1inX

 

 

 

http://shrt10.com/LVmaRl

 

 

 

 

 

 

 

 

 

 

 

rapidgator.net

 

 

 

 

 

 

http://shrt10.com/XKvVSgIm

 

 

 

http://shrt10.com/NA2k

 

 

 

 

 

 

 

 

 

 

Watch Bar Wrestling 6 Head Of Household 2017 11 09 WEB /720p

Support HVIPS

Please Disable Ad-Block To View This site. just help us to continue this work