Watch BAMMA 34 720p HDTV VERUM

Watch BAMMA 34 720p HDTV VERUM

 

 

 

s

 

 

 

wwe

 

 

 

 

 

 

 
Complete name : bamma.34.720p.hdtv.x264-verum.mkv
Format : Matroska
File size : 2.06 GiB
Duration : 1h 35mn
Overall bit rate : 3 094 Kbps
Encoded date : UTC 2010-02-22 21:41:29

Video
ID : 1
Format : AVC
Format/Info : Advanced Video Codec
Duration : 1h 35mn
Bit rate : 2 648 Kbps
Width : 1 280 pixels
Height : 720 pixels
Display aspect ratio : 16:9
Frame rate : 50.000 fps
Color space : YUV
Chroma subsampling : 4:2:0
Bit depth : 8 bits
Scan type : Progressive
Bits/(Pixel*Frame) : 0.057
Stream size : 1.76 GiB (86%)
Audio
ID : 2
Format version : Version 1
Format profile : Layer 2
Codec ID : A_MPEG/L2
Codec ID/Hint : MP2
Duration : 1h 35mn
Bit rate mode : Constant
Bit rate : 384 Kbps
Channel(s) : 2 channels
Sampling rate : 48.0 KHz
Compression mode : Lossy
Delay relative to video : 30ms
Stream size : 262 MiB (12%)
Language : English

 

 

 

 

 

 

 

 

 

Watch BAMMA 34 720p HDTV VERUM

 

 

 

 

Watch online

 

 

Waiting finish converting video

 

 

Server 1

 

 

 

 

 

 

 

 

 

 

 

 

 

 

 

 

 

Server 2

 

 

 

 

 

 

 

 


 

 

 

 

 

Uploaded By Site DX-TV.com

 

 

 

open rar file to see this password

 

 

 

 

The password is : DX-TV.com

 

 

 

 

 

Uploaded.net + rapidgator.net

 

 

 

 

 

 

http://shrt10.com/VcTdlgDb

 

 

 

 

 

http://shrt10.com/h3Ec9

 

 

 

 

 

 

 

 

 

Watch BAMMA 34 720p HDTV VERUM

Support HVIPS

Please Disable Ad-Block To View This site. just help us to continue this work