Watch AJPW Excite Series 2018 02 13 Day 1

Watch AJPW Excite Series 2018 02 13 Day 1

 

 

 

s

 

 

 

wwe

 

 

 

 

 

 

Complete name : AJPW – 2018.02.13 – Excite Series 2018 Day 1.mp4
Format : MPEG-4
Format profile : Base Media / Version 2
Codec ID : mp42
File size : 2.02 GiB
Duration : 2h 11mn
Overall bit rate : 2 193 Kbps
Encoded date : UTC 2018-02-28 18:30:46
Tagged date : UTC 2018-02-28 20:15:04

Video
ID : 1
Format : AVC
Format/Info : Advanced Video Codec
Codec ID : avc1
Codec ID/Info : Advanced Video Coding
Duration : 2h 11mn
Bit rate mode : Variable
Bit rate : 1 998 Kbps
Maximum bit rate : 6 019 Kbps
Width : 1 280 pixels
Height : 720 pixels
Display aspect ratio : 16:9
Frame rate mode : Constant
Frame rate : 30.000 fps
Color space : YUV
Chroma subsampling : 4:2:0
Bit depth : 8 bits
Scan type : Progressive
Bits/(Pixel*Frame) : 0.072
Stream size : 1.84 GiB (91%)
Audio
ID : 2
Format : AAC
Format/Info : Advanced Audio Codec
Format profile : LC
Codec ID : 40
Duration : 2h 11mn
Bit rate mode : Variable
Bit rate : 192 Kbps
Maximum bit rate : 203 Kbps
Channel(s) : 2 channels
Channel positions : Front: L R
Sampling rate : 44.1 KHz
Compression mode : Lossy
Stream size : 181 MiB (9%)
Title : IsoMedia File Produced by Google, 5-11-2011
Encoded date : UTC 2018-02-28 20:16:16
Tagged date : UTC 2018-02-28 20:17:08

 

 

 

 

 

 

 

 

 

 

Watch AJPW Excite Series 2018 02 13 Day 1

 

 

 

 

Watch online

 

 

Waiting finish converting video

 

 

Server 1

 

 

 

 

 

 

 

 

 

 

 

 

 

 

 

 

Server 2

 

 

 

 

 

 


 

 

 

 

 

 

Uploaded By Site DX-TV.com

 

 

 

open rar file to see this password

 

 

 

 

The password is : DX-TV.com

 

 

 

 

 

 

 

Uploaded.net + rapidgator.net

 

 

 

 

 

 

http://shrt10.com/UCdIYDdQ

 

 

 

 

http://shrt10.com/0K9gcLs6

 

 

 

 

 

 

 

 

 

 

Watch AJPW Excite Series 2018 02 13 Day 1

Support HVIPS

Please Disable Ad-Block To View This site. just help us to continue this work