Watch AJPW Dream Power 2018 03 25 WEB DL x264 DX-TV / 720p

Watch AJPW Dream Power 2018 03 25 WEB DL x264 DX-TV / 720p

 

 

 

s

 

 

 

wwe

 

 

 

 

 

Complete name : AJPW Dream Power 2018-03-25 WEB DL x264 DX-TV.mp4
Format : MPEG-4
Format profile : Base Media / Version 2
Codec ID : mp42
File size : 2.68 GiB
Duration : 3h 56mn
Overall bit rate : 1 624 Kbps
Encoded date : UTC 2018-03-27 16:42:48
Tagged date : UTC 2018-03-27 16:42:48

Video
ID : 1
Format : AVC
Format/Info : Advanced Video Codec
Codec ID : avc1
Codec ID/Info : Advanced Video Coding
Duration : 3h 56mn
Bit rate mode : Variable
Bit rate : 1 500 Kbps
Width : 720 pixels
Height : 480 pixels
Display aspect ratio : 3:2
Frame rate mode : Variable
Frame rate : 29.970 fps
Minimum frame rate : 21.692 fps
Maximum frame rate : 29.970 fps
Standard : NTSC
Color space : YUV
Chroma subsampling : 4:2:0
Bit depth : 8 bits
Scan type : Progressive
Bits/(Pixel*Frame) : 0.145
Stream size : 2.46 GiB (92%)

Audio
ID : 2
Format : AAC
Format/Info : Advanced Audio Codec
Format profile : LC
Codec ID : 40
Duration : 3h 56mn
Bit rate mode : Variable
Bit rate : 128 Kbps
Channel(s) : 2 channels
Channel positions : Front: L R
Sampling rate : 48.0 KHz
Compression mode : Lossy
Stream size : 217 MiB (8%)
Title : Stereo
Encoded date : UTC 2018-03-27 16:42:48
Tagged date : UTC 2018-03-27 16:42:48

 

 

 

 

 

 

 

 

 

[EVENT]………..: AJPW Dream Power 2018-03-25 720p WEB DL x264 DX-TV mp4
[RELEASED]……..: 2018.03.25
[SOURCE]……….: WEB DL
[CONTAINER]…….: mp4
[SIZE]…………: 3.11 GB
[Capper Group]….: DX-TV
[Duration]……..: 3 h 56 m
[RESOLUTION]……: 1280 x 720 {16:9}@ 30.000 FPS
[VIDEO]………..: x264 @ 1700 kbps
[AUDIO]………..: AAC @ 160 kbps
[language]……..: Japanes
 

 

 

 

 

 

 

 

Watch AJPW Dream Power 2018 03 25 WEB DL x264 DX-TV / 720p

 

 

 

 

Watch online

 

 

Waiting finish converting video

 

 

Server 1

 

 

 

 

 

 

 

 

 

 

 

 

 

 

 

Server 2

 

 

 

 

 

 

 


 

 

 

 

 

Uploaded By Site DX-TV.com

 

 

 

open rar file to see this password

 

 

 

 

The password is : DX-TV.com

 

 

 

 

400p+720p

 

 

 

 

 

Uploaded.net + rapidgator.net

 

 

 

 

 

 

http://shrt10.com/wVFZu7

 

http://shrt10.com/0GTw

 

 

http://shrt10.com/gdUSTtX

 

 

http://shrt10.com/ArwC5I67

 

 

 

 

 

Watch AJPW Dream Power 2018 03 25 WEB DL x264 DX-TV / 720p

Support HVIPS

Please Disable Ad-Block To View This site. just help us to continue this work