Watch AJPW Champion Carnival Day 1 2018 04 07 720p WEB DL x264 DX-TV

Watch AJPW Champion Carnival Day 1 2018 04 07 720p WEB DL x264 DX-TV

 

 

 

 

 

 

wwe

 

 

 

 

 

 

 

 

Complete name : AJPW Champion Carnival Day 1 20-04-07 720p WEB DL x264 DX-TV.mp4
Format : MPEG-4
Format profile : Base Media
Codec ID : isom
File size : 2.44 GiB
Duration : 3h 1mn
Overall bit rate : 1 927 Kbps
Writing application : Lavf56.30.100

Video
ID : 1
Duration : 3h 1mn
Bit rate mode : Variable
Bit rate : 1 822 Kbps
Width : 1 280 pixels
Height : 720 pixels
Display aspect ratio : 16:9
Frame rate mode : Variable
Frame rate : 29.970 fps
Minimum frame rate : 28.571 fps
Maximum frame rate : 32.258 fps
Color space : YUV
Chroma subsampling : 4:2:0
Bit depth : 8 bits
Scan type : Progressive
Bits/(Pixel*Frame) : 0.066
Stream size : 2.30 GiB (95%)

Audio
ID : 2
Codec ID : 40
Duration : 3h 1mn
Bit rate mode : Constant
Bit rate : 96.0 Kbps
Channel(s) : 2 channels
Channel positions : Front: L R
Sampling rate : 48.0 KHz
Compression mode : Lossy
Stream size : 124 MiB (5%)

 

 

 

 

 

 
2018 Champion · Carnival Official Battle Block A Block 30 min 1 Battle
Shuji Ishikawa VS Yuji Hiro
2018 Champion · Carnival Official Game A Block 30 min 1 Battle
Miyahara Kenji VS Takagi Shingo
2018 Champion · Carnival Official Battle Block 30 Block 30 Min 1 Battle
Akiyama quasi vs. Dylan · James
2018 Champion · Carnival official game B Block 30 minutes 1 victory
Suwa Masu VS Zeus

Co., Ltd. carb presents Kikuchi Tsuyi debut 30th anniversary memorial game Special single match
Kikuchi Tsuyoshi Ultimo Dragon
Ebina Kazi debut match single match
Aki Atsushi VS Azumi Kazunori
8 Tag Match
Iwamoto Akira / Maruyama Atsushi / Nakajima Yohei / Kabel Ito VS Sato Mitsuzu / Okada Yusuke / Josh Bodom / Aisawa No. 1
8 Tag Match
Joe Dorring / Nomura Naae / Yoshitatsu / KAI VS Takao Omori / Choi Ji / Bodygar / Yutaka Yoshie
 

 

 

 

 

 

 

 

 

 

 

Watch AJPW Champion Carnival Day 1 2018 04 07 720p WEB DL x264 DX-TV

 

 

 

 

Watch online

 

 

Waiting finish converting video

 

 

Server 1

 

 

 

 

 

 

 

 

 

 

 

 

 

 

Server 2

 

 

 

 

 

 

 

 


 

 

 

Uploaded By Site DX-TV.com

 

 

 

open rar file to see this password

 

 

 

 

The password is : DX-TV.com

 

 

 

 

720p

 

 

 

 

 

Uploaded.net + rapidgator.net

 

 

 

 

 

http://shrt10.com/ZPsx

 

 

 

 

http://shrt10.com/KxgMJLOo

 

 

 

 

 

 

 

 

 

 

Watch AJPW Champion Carnival Day 1 2018 04 07 720p WEB DL x264 DX-TV

Support HVIPS

Please Disable Ad-Block To View This site. just help us to continue this work