Watch AIW Rulers Of The World 12 29 2017 – 720p

Watch AIW Rulers Of The World 12 29 2017 – 720p

 

 

 

 

 

 

wwe

 

 

 

 

 

 

 
Complete name : AIW.2017.12.29.Rulers.Of.The.World.WEB-DL.mp4
Format : MPEG-4
Format profile : Base Media / Version 2
Codec ID : mp42
File size : 2.96 GiB
Duration : 3h 18mn
Overall bit rate : 2 133 Kbps
Encoded date : UTC 2018-01-06 13:52:58
Tagged date : UTC 2018-01-06 13:56:09

Video
ID : 1
Format : AVC
Format/Info : Advanced Video Codec
Codec ID : avc1
Codec ID/Info : Advanced Video Coding
Duration : 3h 18mn
Bit rate mode : Variable
Bit rate : 2 001 Kbps
Width : 854 pixels
Height : 480 pixels
Display aspect ratio : 16:9
Frame rate mode : Constant
Frame rate : 23.976 fps
Color space : YUV
Chroma subsampling : 4:2:0
Bit depth : 8 bits
Scan type : Progressive
Bits/(Pixel*Frame) : 0.204
Stream size : 2.78 GiB (94%)
Language : English

Audio
ID : 2
Format : AAC
Format/Info : Advanced Audio Codec
Format profile : LC
Codec ID : 40
Duration : 3h 18mn
Bit rate mode : Constant
Bit rate : 128 Kbps
Channel(s) : 2 channels
Channel positions : Front: L R
Sampling rate : 48.0 KHz
Compression mode : Lossy
Stream size : 182 MiB (6%)
Language : English
Encoded date : UTC 2018-01-06 13:52:50
Tagged date : UTC 2018-01-06 13:56:09

 

 

 

 

 

 

 

 

 

 

 

 

 

 

 

 

 

 

Watch AIW Rulers Of The World 12 29 2017 – 720p

 

 

 

 

Watch online

 

 

Waiting finish converting video

 

 

Server 1

 

 

 

 

 

 

 

 

 

 

 

 

 

 

 

 

 

 

 

 

Server 2

 

 

 

 

 

 

 

 

 


 

 

 

Uploaded By Site DX-TV.com

 

 

 

open rar file to see this password

 

 

 

 

The password is : DX-TV.com

 

 

 

 

720p

 

 

 

 

 

Uploaded.net + rapidgator.net

 

 

 

 

 

 

 

http://shrt10.com/iXp8Qr

 

 

 

 

http://shrt10.com/eQvdp

 

 

 

 

 

 

 

 

 

Watch AIW Rulers Of The World 12 29 2017 – 720p