Watch AIW Death Rowe 2018 01 19 mp4 720p

Watch AIW Death Rowe 2018 01 19 mp4 720p

 

 

 

 

 

wwe

 

 

 

 

 

 

 

 
Complete name : Aiw-01-19-2018.mp4
Format : MPEG-4
Format profile : Base Media / Version 2
Codec ID : mp42
File size : 2.91 GiB
Duration : 3h 15mn
Overall bit rate : 2 129 Kbps
Encoded date : UTC 2018-02-06 17:05:51
Tagged date : UTC 2018-02-06 17:08:06

Video
ID : 1
Format : AVC
Format/Info : Advanced Video Codec
Codec ID : avc1
Codec ID/Info : Advanced Video Coding
Duration : 3h 15mn
Bit rate mode : Variable
Bit rate : 1 997 Kbps
Width : 854 pixels
Height : 480 pixels
Display aspect ratio : 16:9
Frame rate mode : Constant
Frame rate : 23.976 fps
Color space : YUV
Chroma subsampling : 4:2:0
Bit depth : 8 bits
Scan type : Progressive
Bits/(Pixel*Frame) : 0.203
Stream size : 2.73 GiB (94%)
Language : English
Encoded date : UTC 2018-02-06 17:05:42

Audio
ID : 2
Format : AAC
Format/Info : Advanced Audio Codec
Format profile : LC
Codec ID : 40
Duration : 3h 15mn
Bit rate mode : Constant
Bit rate : 128 Kbps
Channel(s) : 2 channels
Channel positions : Front: L R
Sampling rate : 48.0 KHz
Compression mode : Lossy
Stream size : 179 MiB (6%)
Language : English
Encoded date : UTC 2018-02-06 17:05:42
Tagged date : UTC 2018-02-06 17:08:06

 

 

 

 

 

 

 

 

 

 

 

 

 

 

 

 

 

Watch AIW Death Rowe 2018 01 19 mp4 720p

 

 

 

 

Watch online

 

 

Waiting finish converting video

 

 

Server 1

 

 

 

 

 

 

 

 

 

 

 

 

 

 

 

 

 

 

Server 2

 

 

 

 

 

 

 


 

 

 

 

 

 

Uploaded By Site DX-TV.com

 

 

 

open rar file to see this password

 

 

 

 

The password is : DX-TV.com

 

 

 

 

400p+720p

 

 

 

 

 

Uploaded.net + rapidgator.net

 

 

 

 

 

 

 

http://shrt10.com/epo2Ql

 

 

 

 

 

http://shrt10.com/9bwqbl

 

 

 

 

 

 

 

 

Watch AIW Death Rowe 2018 01 19 mp4 720p