Watch AAW 2018 07 21 United We Stand WEB NCMP /720p

Watch AAW 2018 07 21 United We Stand WEB NCMP /720p

 

 

 

 


 

 

 

dx-tv.com

 

 

 

 

 

 

 
Complete name : AAW.2018.07.21.United.We.Stand.WEB.h264-NCMP.mp4
Format : MPEG-4
Format profile : Base Media
File size : 1.74 GiB
Duration : 2 h 37 min
Overall bit rate : 1 576 kb/s
Writing application : Lavf55.12.100

Video
ID : 2
Format : AVC
Format/Info : Advanced Video Codec
Codec ID : avc1
Codec ID/Info : Advanced Video Coding
Duration : 2 h 37 min
Bit rate : 1 495 kb/s
Width : 854 pixels
Height : 480 pixels
Display aspect ratio : 16:9
Frame rate mode : Constant
Color space : YUV
Chroma subsampling : 4:2:0
Bit depth : 8 bits
Scan type : Progressive
Bits/(Pixel*Frame) : 0.122
Stream size : 1.65 GiB (95%)
Color range : Limited
Color primaries : BT.709
Transfer characteristics : BT.709
Matrix coefficients : BT.709

Audio
ID : 1
Format : AAC
Format/Info : Advanced Audio Codec
Format profile : LC
Codec ID : mp4a-40-2
Duration : 2 h 37 min
Bit rate mode : Constant
Bit rate : 74.3 kb/s
Channel(s) : 2 channels
Channel positions : Front: L R
Sampling rate : 48.0 kHz
Frame rate : 46.875 FPS (1024 SPF)
Compression mode : Lossy
Stream size : 83.7 MiB (5%)
Default : Yes
Alternate group : 1

 

 

 

Watch AAW 2018 07 21 United We Stand WEB NCMP /720p

 

 

 

 

Watch online

 

 

Waiting finish converting video

 

 

Server 1

 

 

 

 

 

 

 

 

 

 

 

 

 

 

 

 

 

 

 

Server 2

 

 

 

 

 

 


 

 

 

 

 

 

Uploaded By Site DX-TV.com

 

 

 

open rar file to see this password

 

 

 

 

The password : DX-TV.com

 

 

 

 

 

 

Uploaded.net + rapidgator.net

 

 

 

 

 

http://shrt10.com/k8s5WYRZ
 

http://shrt10.com/9XgMH
 

http://shrt10.com/fKmYwWKT

 
http://shrt10.com/YpQr

 

 

 

 

 

 

 

Watch AAW 2018 07 21 United We Stand WEB NCMP /720p