Watch AAW 2018 06 23 WRSTLING RULZ WEB NCMP /720p

Watch AAW 2018 06 23 WRSTLING RULZ WEB NCMP /720p

 

 

 

 


 

 

dx-tv.com

 

 

 

 

 

 

Complete name : AAW.2018.06.23.WRSTLING RULZ.WEB.h264-NCMP.mp4
Format : MPEG-4
Format profile : Base Media
Codec ID : isom
File size : 2.25 GiB
Duration : 3h 23mn
Overall bit rate : 1 581 Kbps

Video
ID : 2
Format : AVC
Format/Info : Advanced Video Codec
Codec ID : avc1
Codec ID/Info : Advanced Video Coding
Duration : 3h 23mn
Bit rate mode : Variable
Bit rate : 1 495 Kbps
Width : 854 pixels
Height : 480 pixels
Display aspect ratio : 16:9
Frame rate mode : Constant
Frame rate : 29.970 fps
Color space : YUV
Chroma subsampling : 4:2:0
Bit depth : 8 bits
Scan type : Progressive
Bits/(Pixel*Frame) : 0.122
Stream size : 2.13 GiB (95%)

Audio
ID : 1
Format : AAC
Format/Info : Advanced Audio Codec
Format profile : LC
Codec ID : 40
Duration : 3h 23mn
Bit rate mode : Variable
Bit rate : 78.6 Kbps
Maximum bit rate : 92.3 Kbps
Channel(s) : 2 channels
Channel positions : Front: L R
Sampling rate : 48.0 KHz
Compression mode : Lossy
Stream size : 114 MiB (5%)

 

 

 

 

 

 

 

 
6.23.18 – WRSTLING RULZ – AAW Pro
Video Duration: 03:23:32

WRSTLING RULZ
6/23/18
115 Bourbon Street – Merrionette Park, IL

1. Rich Swann vs. Stephen Wolf vs. Myron Reed

2. Savanna Stone vs. Scarlett Bordeaux

3. Eddie Kingston vs. Moose

4. Hudson Envy vs. Su Yung

5. AAW Heritage Championship: Trey Miguel vs. Trevor Lee(c)

6. Brody King vs. Sami Callihan

7. MJF vs. Colt Cabana

8. Something & Stallion vs. Webb & Volto vs. Romero & PACO

9. AAW Women’s Championship: Kylie Rae vs. Kimber Lee(c)

10. AAW Heavyweight Championship: David Starr vs. ACH(c)
 

 

 

Watch AAW 2018 06 23 WRSTLING RULZ WEB NCMP /720p

 

 

 

Watch online

 

 

Waiting finish converting video

 

 

Server 1

 

 

 

 

 

 

 

 

 

 

 

 

 

 

 

 

Server 2

 

 

 

 

 

 

 

 

 

 

 

 

 

 

Uploaded By Site DX-TV.com

 

 

 

open rar file to see this password

 

 

 

 

The password : DX-TV.com

 

 

 

 

400p+720p

 

 

 

 

 

Uploaded.net + rapidgator.net

 

 

 

 

 
http://shrt10.com/e9fWfbC
 

 

 

http://shrt10.com/wH1fWb
 

 

 

http://shrt10.com/TfGdKd
 

 

 

http://shrt10.com/ynXN4G
 

 

 

 

 

Watch AAW 2018 06 23 WRSTLING RULZ WEB NCMP /720p

This site uses Akismet to reduce spam. Learn how your comment data is processed.

Support HVIPS

Please Disable Ad-Block To View This site. just help us to continue this work