Watch AAW 2017 10 07 Seize The Day 720p WEB mp4

Watch AAW 2017 10 07 Seize The Day 720p WEB mp4

 

 

 

 

 

 

wwe

 

 

 

 

 

 

 

Complete name : AAW.2017.10.07.Seize.The.Day.WEB.h264-NCMP.mp4
Format : MPEG-4
Format profile : Base Media
Codec ID : isom
File size : 2.12 GiB
Duration : 3h 11mn
Overall bit rate : 1 583 Kbps
Encoded date : UTC 2017-12-07 15:43:11
Tagged date : UTC 2017-12-07 15:43:11
Writing application : Lavf56.36.100

Video
ID : 2
Format : AVC
Format/Info : Advanced Video Codec
Codec ID : avc1
Codec ID/Info : Advanced Video Coding
Duration : 3h 11mn
Bit rate mode : Variable
Bit rate : 1 495 Kbps
Width : 854 pixels
Height : 480 pixels
Display aspect ratio : 16:9
Frame rate mode : Constant
Frame rate : 29.970 fps
Color space : YUV
Chroma subsampling : 4:2:0
Bit depth : 8 bits
Scan type : Progressive
Bits/(Pixel*Frame) : 0.122
Stream size : 2.00 GiB (94%)

Audio
ID : 1
Format : AAC
Format/Info : Advanced Audio Codec
Format profile : LC
Codec ID : 40
Duration : 3h 11mn
Bit rate mode : Variable
Bit rate : 80.9 Kbps
Maximum bit rate : 96.4 Kbps
Channel(s) : 2 channels
Channel positions : Front: L R
Sampling rate : 48.0 KHz
Compression mode : Lossy
Stream size : 111 MiB (5%)

 

 

 

 

 

Seize The Day 
10/7/17 
Knights of Columbus – LaSalle, IL 

1. Allie Kat vs. Samantha Heights 
2. Curt Stallion vs. Chuck Taylor 
3. Mike Hartenbower vs. Eddie Kingston 
4. Jake Something & BRUBAKER vs. Zero Gravity (Brett Gakiya & CJ Esparza) 
5. Sami Callihan vs. AR Fox 
6. Ace Perry & PACO vs. Kody Rice & Connor Braxton vs. Team EatClips (Trey Miguel & Stephen Wolf) 
7. AAW Tag Team Championship: The Hooligans (Devin & Mason Cutter) vs. Zachary Wentz & Dezmond Xavier (c) 
8. Allysin Kay vs. Rachael Ellering 
9. Britt Baker vs. Candie LeRae 
10. Michael Elgin & Myron Reed vs. Keith Lee & Shane Strickland 
11. AAW Heavyweight Championship: Penta El Zero M vs. Rey Fenix (c) 

 

 

 

 

 

 

 

 

 

 

 

Watch AAW 2017 10 07 Seize The Day 720p WEB mp4

 

 

 

 

Watch online

 

 

Waiting finish converting video

 

 

Server 1

 

 

 

 

 

 

 

 

 

 

 

 

 

 

 

 

 

 

 

 

Server 2

 

 

 

 

 

 

 

 


 

 

 

 

 

 

 

 

Srver 3

 

 

 

 

 

 

 

 

 


 

 

 

 

 

 

 

 

 

Uploaded By Site DX-TV.com

 

 

 

open rar file to see this password

 

 

 

 

The password is : DX-TV.com

 

 

 

 

 

 

 

 

 

rapidgator.net

 

 

 

 

 

 

 

 

 http://shrt10.com/ovNwv4X

 

 

 

 

 

 

Watch AAW 2017 10 07 Seize The Day 720p WEB mp4

Support HVIPS

Please Disable Ad-Block To View This site. just help us to continue this work