Watch AAW 2017 08 31 Defining Moment WEB mp4

Watch AAW 2017 08 31 Defining Moment WEB mp4

 

 

 

 

 

 

wwe

 

 

 

 

 

 

Complete name : AAW.2017.08.31.Defining.Moment.WEB.h264-NCMP.mp4
Format : MPEG-4
Format profile : Base Media
Codec ID : isom
File size : 1.98 GiB
Duration : 2h 59mn
Overall bit rate : 1 579 Kbps

Video
ID : 2
Format : AVC
Codec ID : avc1
Duration : 2h 59mn
Bit rate mode : Variable
Bit rate : 1 491 Kbps
Width : 854 pixels
Height : 480 pixels
Display aspect ratio : 16:9
Frame rate mode : Constant
Frame rate : 29.970 fps
Color space : YUV
Chroma subsampling : 4:2:0
Bit depth : 8 bits
Scan type : Progressive
Bits/(Pixel*Frame) : 0.121
Stream size : 1.87 GiB (94%)

Audio
ID : 1
Format : AAC
Format profile : LC
Codec ID : 40
Duration : 2h 59mn
Bit rate mode : Variable
Bit rate : 81.1 Kbps
Maximum bit rate : 93.0 Kbps
Channel(s) : 2 channels
Channel positions : Front: L R
Sampling rate : 48.0 KHz
Compression mode : Lossy
Stream size : 104 MiB (5%)

 

 

 

 

 

 

 

 

 

 

 

 

 

 

 

 

Watch AAW 2017 08 31 Defining Moment WEB mp4

 

 

 

 

Watch online

 

 

Waiting finish converting video

 

 

Server 1

 

 

 

 

 

 

 

 

 

 

 

 

 

 

 

 

 

 

 

 

 

 

Srver 2

 

 

 

 

 

 

 


 

 

 

 

 

 

 

 

 

Server 3

 

 

 

 

 

 

 

 


 

 

 

 

 

 

 

 

Uploaded By Site DX-TV.com

 

 

 

open rar file to see this password

 

 

 

 

The password is : DX-TV.com

 

 

 

 

 

 

 

 

Uploaded.net

 

 

 

 

 

 

 

http://shrt10.com/dM3XdXi9

 

 

 

 

 

 

 

 

 

 

 

rapidgator.net

 

 

 

 

 

 

http://shrt10.com/CtH1

 

 

 

 

 

 

 

 

 

 

Watch AAW 2017 08 31 Defining Moment WEB mp4