UFC on Fox 29 Prelims 2018 04 14 WEB DL /720p Watch / Download

UFC on Fox 29 Prelims 2018 04 14 WEB DL /720p Watch / Download

 

 

 

 

 

 

 

 

 

dx-tv.com

 

 

 

 

 

 

 
Complete name : UFC.on.Fox.29.Prelims.WEB-DL.mp4
Format : MPEG-4
Format profile : Base Media
Codec ID : isom
File size : 1.23 GiB
Duration : 1h 58mn
Overall bit rate : 1 493 Kbps
Writing application : Lavf56.40.101

Video
ID : 1
Format : AVC
Format/Info : Advanced Video Codec
Codec ID : avc1
Codec ID/Info : Advanced Video Coding
Duration : 1h 58mn
Bit rate mode : Variable
Bit rate : 1 406 Kbps
Width : 960 pixels
Height : 540 pixels
Display aspect ratio : 16:9
Frame rate mode : Constant
Frame rate : 29.970 fps
Color space : YUV
Chroma subsampling : 4:2:0
Bit depth : 8 bits
Scan type : Progressive
Bits/(Pixel*Frame) : 0.090
Stream size : 1.16 GiB (94%)

Audio
ID : 2
Format : AAC
Format/Info : Advanced Audio Codec
Format profile : LC
Codec ID : 40
Duration : 1h 58mn
Bit rate mode : Constant
Bit rate : 77.6 Kbps
Channel(s) : 2 channels
Channel positions : Front: L R
Sampling rate : 44.1 KHz
Compression mode : Lossy
Stream size : 65.7 MiB (5%)

 

 

 

 

 

 

 

 
[EVENT]: UFC.on.Fox.29.Prelims.720p.WEB-DL.mp4
[SIZE]: 3.39 GB
[SOURCE]: Fight Pass
[CONTAINER]: mp4
[RESOLUTION]: 1280 x 720 @ 29.970 FPS
[VIDEO]: H264 @ 3969 Kbps
[AUDIO]: AAC @ 125 kbps
[Length]: 01:58:24
[Language]: English
 

 

 

 

 

 

 

 

 

 

UFC on Fox 29 Prelims 2018 04 14 WEB DL /720p Watch / Download

 

 

 

 

Watch online

 

 

Waiting finish converting video

 

 

Server 1

 

 

 

 

 

 

 

 

 

 

 

 

Server 2

 

 

 

 

 

 


 

 

 

 

 

Uploaded By Site DX-TV.com

 

 

 

open rar file to see this password

 

 

 

 

The password is : DX-TV.com

 

 

 

 

400p+720p

 

 

 

 

 

Uploaded.net + rapidgator.net

 

 

 

 

 

http://shrt10.com/ykSLnGG

 

 

http://shrt10.com/7AaBg2

 

 

http://shrt10.com/oaK1

 

 

http://shrt10.com/eHVYdNR

 

 

 

 

 

 

 

UFC on Fox 29 Prelims 2018 04 14 WEB DL /720p Watch / Download

Support HVIPS

Please Disable Ad-Block To View This site. just help us to continue this work