UFC Fight Night 131 Early Prelims WEB DL /720p Watch / Download

UFC Fight Night 131 Early Prelims WEB DL /720p Watch / Download

 

 

 

 


 

 

dx-tv.com

 

 

 

 

 

 

Complete name : UFC.Fight.Night.131.Early.Prelims.WEB-DL.mp4
Format : MPEG-4
Format profile : Base Media
Codec ID : isom
File size : 664 MiB
Duration : 1h 0mn
Overall bit rate : 1 529 Kbps
Writing application : Lavf56.40.101

Video
ID : 1
Format : AVC
Format/Info : Advanced Video Codec
Codec ID : avc1
Codec ID/Info : Advanced Video Coding
Duration : 1h 0mn
Bit rate mode : Variable
Bit rate : 1 442 Kbps
Width : 852 pixels
Height : 480 pixels
Display aspect ratio : 16:9
Frame rate mode : Constant
Frame rate : 29.970 fps
Color space : YUV
Chroma subsampling : 4:2:0
Bit depth : 8 bits
Scan type : Progressive
Bits/(Pixel*Frame) : 0.118
Stream size : 626 MiB (94%)

Audio
ID : 2
Format : AAC
Format/Info : Advanced Audio Codec
Format profile : LC
Codec ID : 40
Duration : 1h 0mn
Bit rate mode : Variable
Bit rate : 77.6 Kbps
Maximum bit rate : 98.5 Kbps
Channel(s) : 2 channels
Channel positions : Front: L R
Sampling rate : 44.1 KHz
Compression mode : Lossy
Stream size : 33.7 MiB (5%)

 

 

 

 

 

 

 
[EVENT]: UFC.Fight.Night.131.Early.Prelims.720p.WE mp4
[SIZE]: 1.87 GB
[SOURCE]: Fight Pass
[CONTAINER]: mp4
[RESOLUTION]: 1280 x 720 @ 29.970 FPS
[VIDEO]: H264 @ 4266 Kbps
[AUDIO]: AAC @ 126 kbps
[Length]: 01:00:40
[Language]: English
 

 

 

 

 

UFC Fight Night 131 Early Prelims WEB DL /720p Watch / Download

 

 

 

 

Watch online

 

 

Waiting finish converting video

 

 

Server 1

 

 

 

 

 

 

 

 

 

 

 

 

 

 

 

 

Server 2

 

 

 

 

 

 

 


 

 

 

 

 

Uploaded By Site DX-TV.com

 

 

 

open rar file to see this password

 

 

 

 

The password is : DX-TV.com

 

 

 

 

400p+720p

 

 

 

 

 

Uploaded.net + rapidgator.net

 

 

 

 

 

 
http://shrt10.com/di8qkO
 

http://shrt10.com/0yMMo7n
 

http://shrt10.com/u2dsJc
 

http://shrt10.com/glz81

 

 

 

 

 

 

UFC Fight Night 131 Early Prelims WEB DL /720p Watch / Download

Support HVIPS

Please Disable Ad-Block To View This site. just help us to continue this work