UFC Fight Night 130 Main Card 1080i HDTV RUS /ENG dds Download

UFC Fight Night 130 Main Card 1080i HDTV RUS /ENG dds Download

 

 

 

 

 

 

dx-tv

 

 

 

 

Complete name : UFC Fight Night 130 – Thompson vs. Till_Main Card_Setanta HD_RUS_ENG-dds.ts
Format : MPEG-TS
Format/Info : Advanced Video Codec
File size : 7.50 GiB
Duration : 3h 4mn
Overall bit rate : 5 812 Kbps

Video
ID : 7511 (0x1D57)
Menu ID : 7510 (0x1D56)
Duration : 3h 4mn
Bit rate mode : Constant
Bit rate : 5 145 Kbps
Width : 1 920 pixels
Height : 1 080 pixels
Display aspect ratio : 16:9
Frame rate : 25.000 fps
Color space : YUV
Chroma subsampling : 4:2:0
Bit depth : 8 bits
Scan type : Interlaced
Scan order : Top Field First
Bits/(Pixel*Frame) : 0.099
Stream size : 6.63 GiB (88%)

Audio #1
ID : 7512 (0x1D58)
Menu ID : 7510 (0x1D56)
Format version : Version 1
Format profile : Layer 2
Codec ID : 3
Duration : 3h 4mn
Bit rate mode : Constant
Bit rate : 192 Kbps
Channel(s) : 2 channels
Sampling rate : 48.0 KHz
Compression mode : Lossy
Stream size : 254 MiB (3%)
Language : English

Audio #2
ID : 7513 (0x1D59)
Menu ID : 7510 (0x1D56)
Format version : Version 1
Format profile : Layer 2
Codec ID : 3
Duration : 3h 4mn
Bit rate mode : Constant
Bit rate : 192 Kbps
Channel(s) : 2 channels
Sampling rate : 48.0 KHz
Compression mode : Lossy
Stream size : 254 MiB (3%)
Language : English

 

 

 

 

 

UFC Fight Night 130 Main Card 1080i HDTV RUS /ENG dds Download

 

 

 

Uploaded By Site DX-TV.com

 

 

 

open rar file to see this password

 

 

 

 

The password is : DX-TV.com

 

 

 

 

 

 

Uploaded.net + rapidgator.net

 

 

 

 

 

 
http://shrt10.com/irPQDD
 

 
http://shrt10.com/7wcQ
 

 
http://shrt10.com/jNANj
 

 
http://shrt10.com/qxL82QyJ
 

 
http://shrt10.com/NFXWKF1r
 

 
http://shrt10.com/IiMBbsXW
 

 

 

 

 

 

 

 

 

 

UFC Fight Night 130 Main Card 1080i HDTV RUS /ENG dds Download

Support HVIPS

Please Disable Ad-Block To View This site. just help us to continue this work