UFC Fight Night 128 Prelims WEB DL /720p Watch / Download

UFC Fight Night 128 Prelims WEB DL /720p Watch / Download

 

 

 

 

 

 

 

 

 

dx-tv.com

 

 

 

 

 

 

Complete name : UFC.Fight.Night.128.Prelims.WEB-DL.mp4
Format : MPEG-4
Format profile : Base Media
Codec ID : isom
File size : 1.25 GiB
Duration : 1h 59mn
Overall bit rate : 1 494 Kbps
Writing application : Lavf56.40.101

Video
ID : 1
Format : AVC
Format/Info : Advanced Video Codec
Codec ID : avc1
Codec ID/Info : Advanced Video Coding
Duration : 1h 59mn
Bit rate mode : Variable
Bit rate : 1 407 Kbps
Width : 960 pixels
Height : 540 pixels
Display aspect ratio : 16:9
Frame rate mode : Constant
Frame rate : 29.970 fps
Color space : YUV
Chroma subsampling : 4:2:0
Bit depth : 8 bits
Scan type : Progressive
Bits/(Pixel*Frame) : 0.091
Stream size : 1.18 GiB (94%)

Audio
ID : 2
Format : AAC
Format/Info : Advanced Audio Codec
Format profile : LC
Codec ID : 40
Duration : 1h 59mn
Bit rate mode : Variable
Bit rate : 77.6 Kbps
Maximum bit rate : 78.2 Kbps
Channel(s) : 2 channels
Channel positions : Front: L R
Sampling rate : 44.1 KHz
Compression mode : Lossy
Stream size : 66.5 MiB (5%)

 

 

 

 

 

 

 

 

 
[EVENT]: UFC.Fight.Night.128.Prelims.720p.WEB-DL mp4
[SIZE]: 3.45 GB
[SOURCE]: Fight Pass
[CONTAINER]: mp4
[RESOLUTION]: 1280 x 720 @ 29.970 FPS
[VIDEO]: H264 @ 4500 Kbps
[AUDIO]: AAC @ 128 kbps
[Length]: 01:59:49
[Language]: English
 

 

 

 

UFC Fight Night 128 Prelims WEB DL /720p Watch / Download

 

 

 

 

Watch online

 

 

Waiting finish converting video

 

 

Server 1

 

 

 

 

 

 

 

 

 

 

 

 

Server 2

 

 

 

 

 

 


 

 

 

 

Uploaded By Site DX-TV.com

 

 

 

open rar file to see this password

 

 

 

 

The password is : DX-TV.com

 

 

 

 

400p+720p

 

 

 

 

 

Uploaded.net + rapidgator.net

 

 

 

 

 

http://shrt10.com/bHRraH

 

 

http://shrt10.com/qAro3

 

 

http://shrt10.com/yBrJi

 

 

http://shrt10.com/I0RcoM

 

 

 

 

 

 

 

UFC Fight Night 128 Prelims WEB DL /720p Watch / Download