UFC Fight Night 128 Barboza vs Lee Main Card HDTV 1080i English dds

UFC Fight Night 128 Barboza vs Lee Main Card HDTV 1080i English dds

 

 

 

 

 

 

 

 

 

dx-tv.com

 

 

 

 

 

 

 

 
Complete name : UFC Fight Night 128 – Barboza vs. Lee_Main Card_HDTV 1080i_ENG-dds.ts
Format : MPEG-TS
Format/Info : Advanced Video Codec
File size : 15.3 GiB
Duration : 2h 53mn
Overall bit rate : 12.6 Mbps

Video
ID : 201 (0xC9)
Menu ID : 777 (0x309)
Format : AVC
Format/Info : Advanced Video Codec
Codec ID : 27
Duration : 2h 53mn
Bit rate : 11.7 Mbps
Width : 1 920 pixels
Height : 1 080 pixels
Display aspect ratio : 16:9
Frame rate : 25.000 fps
Color space : YUV
Chroma subsampling : 4:2:0
Bit depth : 8 bits
Scan type : Interlaced
Scan order : Top Field First
Bits/(Pixel*Frame) : 0.226
Stream size : 14.2 GiB (93%)

Audio
ID : 202 (0xCA)
Menu ID : 777 (0x309)
Format version : Version 1
Format profile : Layer 2
Codec ID : 3
Duration : 2h 53mn
Bit rate mode : Constant
Bit rate : 256 Kbps
Channel(s) : 2 channels
Sampling rate : 48.0 KHz
Compression mode : Lossy
Stream size : 317 MiB (2%)
Language : ENG

 

 

 

 

 

UFC Fight Night 128 Barboza vs Lee Main Card HDTV 1080i English dds

 

 

 

 

 

 

 

Uploaded By Site DX-TV.com

 

 

 

open rar file to see this password

 

 

 

 

The password is : DX-TV.com

 

 

 

 

1080i

 

 

 

 

 

Uploaded.net + rapidgator.net

 

 

 

 

 

http://shrt10.com/LuEZ74

 

 

http://shrt10.com/2H0cKz

 

 

http://shrt10.com/gmVmBZI

 

 

http://shrt10.com/AMNEAVVd

 

 

http://shrt10.com/6jORn52

 

 

http://shrt10.com/sh4F

 

 

http://shrt10.com/pTX6d

 

 

http://shrt10.com/mT37O

 

 

 

UFC Fight Night 128 Barboza vs Lee Main Card HDTV 1080i English dds

Support HVIPS

Please Disable Ad-Block To View This site. just help us to continue this work