UFC Fight Night 128 Barboza vs Lee HDTV Ebi Watch / Download

UFC Fight Night 128 Barboza vs Lee HDTV Ebi Watch / Download

 

 

 

 

 

 

 

 

 

dx-tv.com

 

 

 

 

 

 
Complete name : UFC.Fight.Night.128.Barboza.vs.Lee.HDTV.x264-Ebi.mp4
Format : MPEG-4
Format profile : Base Media / Version 2
Codec ID : mp42
File size : 2.05 GiB
Duration : 3h 21mn
Overall bit rate : 1 459 Kbps
Encoded date : UTC 2018-04-22 06:09:49
Tagged date : UTC 2018-04-22 06:09:49

Video
ID : 1
Format : AVC
Format/Info : Advanced Video Codec
Codec ID : avc1
Codec ID/Info : Advanced Video Coding
Duration : 3h 21mn
Bit rate mode : Variable
Bit rate : 1 300 Kbps
Width : 712 pixels
Height : 400 pixels
Display aspect ratio : 16:9
Frame rate mode : Constant
Frame rate : 29.970 fps
Color space : YUV
Chroma subsampling : 4:2:0
Bit depth : 8 bits
Scan type : Progressive
Bits/(Pixel*Frame) : 0.152
Stream size : 1.83 GiB (89%)

Audio
ID : 2
Format : AAC
Format/Info : Advanced Audio Codec
Format profile : LC
Codec ID : 40
Duration : 3h 21mn
Bit rate mode : Variable
Bit rate : 155 Kbps
Channel(s) : 2 channels
Channel positions : Front: L R
Sampling rate : 48.0 KHz
Compression mode : Lossy
Stream size : 223 MiB (11%)
Title : Stereo
Encoded date : UTC 2018-04-22 06:09:49
Tagged date : UTC 2018-04-22 06:09:49

 

 

 

 

 

 

 

 

 

UFC Fight Night 128 Barboza vs Lee HDTV Ebi Watch / Download

 

 

 

 

Watch online

 

 

Waiting finish converting video

 

 

Server 1

 

 

 

 

 

 

 

 

 

 

 

 

 

 

 

 

Server 2

 

 

 

 

 

 

 


 

 

 

 

 

Uploaded By Site DX-TV.com

 

 

 

open rar file to see this password

 

 

 

 

The password is : DX-TV.com

 

 

 

 

 

 

Uploaded.net + rapidgator.net

 

 

 

 

 

 

http://shrt10.com/ebxOE3

 

 

 

 

http://shrt10.com/Zq5derq

 

 

 

 

 

 

 

 

 

 

UFC Fight Night 128 Barboza vs Lee HDTV Ebi Watch / Download