UFC Fight Night 128 Barboza vs Lee 720p HDTV Ebi Watch / Download

UFC Fight Night 128 Barboza vs Lee 720p HDTV Ebi Watch / Download

 

 

 

 

 

 

 

 

 

dx-tv.com

 

 

 

 

 

 
Complete name : UFC.Fight.Night.128.Barboza.vs.Lee.720p.HDTV.x264-Ebi.mp4
Format : MPEG-4
Format profile : Base Media / Version 2
Codec ID : mp42
File size : 6.60 GiB
Duration : 3h 21mn
Overall bit rate : 4 689 Kbps
Encoded date : UTC 2018-04-22 07:13:33
Tagged date : UTC 2018-04-22 07:13:33

Video
ID : 1
Format : AVC
Format/Info : Advanced Video Codec
Codec ID : avc1
Codec ID/Info : Advanced Video Coding
Duration : 3h 21mn
Bit rate mode : Variable
Bit rate : 4 500 Kbps
Width : 1 280 pixels
Height : 720 pixels
Display aspect ratio : 16:9
Frame rate mode : Constant
Frame rate : 29.970 fps
Color space : YUV
Chroma subsampling : 4:2:0
Bit depth : 8 bits
Scan type : Progressive
Bits/(Pixel*Frame) : 0.163
Stream size : 6.32 GiB (96%)

Audio
ID : 2
Format : AAC
Format/Info : Advanced Audio Codec
Format profile : LC
Codec ID : 40
Duration : 3h 21mn
Bit rate mode : Variable
Bit rate : 186 Kbps
Channel(s) : 2 channels
Channel positions : Front: L R
Sampling rate : 48.0 KHz
Compression mode : Lossy
Stream size : 267 MiB (4%)
Title : Stereo
Encoded date : UTC 2018-04-22 07:13:33
Tagged date : UTC 2018-04-22 07:13:33

 

 

 

 

 

 

 

 

UFC Fight Night 128 Barboza vs Lee 720p HDTV Ebi Watch / Download

 

 

 

 

 

 

 

 

Uploaded By Site DX-TV.com

 

 

 

open rar file to see this password

 

 

 

 

The password is : DX-TV.com

 

 

 

 

Uploaded.net + rapidgator.net

 

 

 

 

 

http://shrt10.com/u5o33i

 

 

http://shrt10.com/LWm7

 

 

http://shrt10.com/9uQYD

 

 

http://shrt10.com/89cCc

 

 

 

 

 

 

 

UFC Fight Night 128 Barboza vs Lee 720p HDTV Ebi Watch / Download

Support HVIPS

Please Disable Ad-Block To View This site. just help us to continue this work