Watch UFC Fight Night 125 Prelims HDTV x264 Ebi /720p

Watch UFC Fight Night 125 Prelims HDTV x264 Ebi /720p

 

 

 

 

 

 

wwe

 

 

 

 

 

 
Complete name : UFC.Fight.Night.125.Prelims.720p.HDTV.x264-Ebi.mp4
Format : MPEG-4
Format profile : Base Media / Version 2
Codec ID : mp42
File size : 3.40 GiB
Duration : 1h 43mn
Overall bit rate : 4 686 Kbps
Encoded date : UTC 2018-02-04 04:27:00
Tagged date : UTC 2018-02-04 04:27:00

Video
ID : 1
Format : AVC
Format/Info : Advanced Video Codec
Codec ID : avc1
Codec ID/Info : Advanced Video Coding
Duration : 1h 43mn
Bit rate mode : Variable
Bit rate : 4 500 Kbps
Width : 1 280 pixels
Height : 720 pixels
Display aspect ratio : 16:9
Frame rate mode : Constant
Frame rate : 29.970 fps
Color space : YUV
Chroma subsampling : 4:2:0
Bit depth : 8 bits
Scan type : Progressive
Bits/(Pixel*Frame) : 0.163
Stream size : 3.25 GiB (96%)

Audio
ID : 2
Format : AAC
Format/Info : Advanced Audio Codec
Format profile : LC
Codec ID : 40
Duration : 1h 43mn
Bit rate mode : Variable
Bit rate : 192 Kbps
Channel(s) : 2 channels
Channel positions : Front: L R
Sampling rate : 48.0 KHz
Compression mode : Lossy
Stream size : 143 MiB (4%)
Title : Stereo
Encoded date : UTC 2018-02-04 04:27:00
Tagged date : UTC 2018-02-04 04:27:00

 

 

 

 

 

 

 

 

 

 
UFC.Fight.Night.125.Prelims.720p.HDTV.x264-Ebi
Release Info:
Show Name: UFC Fight Night 125 Prelims
Genre: MMA
Release Date: 2018-02-04(UK)
Air Date: 2018-02-03(BR)
Source : HDTV
Container: MP4
Video: x264, 4686Kbps, 29,970fps, 1280×720, 16:9
Audio: AAC, 192Kbps, 48KHz, 2ch
Size: 3.40 GB
Runtime: 1h 43mn
 

 

 

 

 

 

 

 

 

 

 

 

 

 

Watch UFC Fight Night 125 Prelims HDTV x264 Ebi /720p

 

 

 

 

Watch online

 

 

Waiting finish converting video

 

 

Server 1

 

 

 

 

 

 

 

 

 

 

 

 

 

 

 

 

 

 

 

 

 

 

 

Srver 2

 

 

 

 

 

 

 

 

 

 

 

 

 

 


 

 

 

 

 

 

 

Uploaded By Site DX-TV.com

 

 

 

open rar file to see this password

 

 

 

 

The password is : DX-TV.com

 

 

 

 

400p+720p

 

 

 

 

Uploaded.net + rapidgator.net

 

 

 

 

 

 

 

 

 

 

 

 

 

 

http://shrt10.com/Ur2K

 

 

http://shrt10.com/UIh61

 

 

http://shrt10.com/HrsdYMf

 

 

http://shrt10.com/6Yre

 

 

 

 

 

 

 

 

 

 

 

 

 

 

 

 

 

 

 

 

Watch UFC Fight Night 125 Prelims HDTV x264 Ebi /720p