UFC 225 Preliminary Fights 720p HDTV KYR Download

UFC 225 Preliminary Fights 720p HDTV KYR Download

 

 

 

 

 

 

dx-tv

 

 

 

 

 

Complete name : UFC.225.Preliminary.Fights.720p.HDTV.x264-KYR.mkv
Format : Matroska
File size : 3.31 GiB
Duration : 1h 29mn
Overall bit rate : 5 281 Kbps

Video
ID : 1
Format : AVC
Format/Info : Advanced Video Codec
Codec ID : V_MPEG4/ISO/AVC
Duration : 1h 29mn
Bit rate : 4 792 Kbps
Width : 1 280 pixels
Height : 720 pixels
Display aspect ratio : 16:9
Frame rate : 59.940 fps
Color space : YUV
Chroma subsampling : 4:2:0
Bit depth : 8 bits
Scan type : Progressive
Bits/(Pixel*Frame) : 0.087
Stream size : 3.00 GiB (91%)

Audio
ID : 2
Format : AC-3
Format/Info : Audio Coding 3
Mode extension : CM (complete main)
Codec ID : A_AC3
Duration : 1h 29mn
Bit rate mode : Constant
Bit rate : 384 Kbps
Channel(s) : 6 channels
Channel positions : Front: L C R, Side: L R, LFE
Sampling rate : 48.0 KHz
Bit depth : 16 bits
Compression mode : Lossy
Stream size : 246 MiB (7%)

 

 

 

 

 

 

 

 

 

 

UFC 225 Preliminary Fights 720p HDTV KYR Download

 

 

 

 

 

 

Uploaded By Site DX-TV.com

 

 

 

open rar file to see this password

 

 

 

 

The password is : DX-TV.com

 

 

 

 

Uploaded.net + rapidgator.net

 

 

 

 

 

 

 
http://shrt10.com/yOAn

 
http://shrt10.com/IIDk
 

 

 

 

 

 

 

UFC 225 Preliminary Fights 720p HDTV KYR Download