UFC 224 Prelims 1080i Gelo B Download

UFC 224 Prelims 1080i Gelo B Download

 

 

 

 


 

 

dx-tv.com

 

 

 

 

 
Complete name :UFC 224 1080i PRELIMS Gelo B.ts
Format : MPEG-TS
Format/Info : Advanced Video Codec
File size : 4.53 GiB
Duration : 1h 20mn
Overall bit rate : 8 100 Kbps

Video
Codec ID : 27
Duration : 1h 20mn
Bit rate : 7 312 Kbps
Width : 1 920 pixels
Height : 1 080 pixels
Display aspect ratio : 16:9
Frame rate : 25.000 fps
Standard : Component
Color space : YUV
Chroma subsampling : 4:2:0
Bit depth : 8 bits
Scan type : Interlaced
Bits/(Pixel*Frame) : 0.141

Audio #1
Codec ID : 6
Duration : 1h 20mn
Bit rate mode : Constant
Bit rate : 192 Kbps
Maximum bit rate : 46.3 Mbps
Channel(s) : 2 channels
Channel positions : Front: L R
Sampling rate : 48.0 KHz
Bit depth : 16 bits
Compression mode : Lossy
Delay relative to video : 40ms
Stream size : 110 MiB (2%)
Language : English

Audio #2
ID : 441 (0x1B9)
Menu ID : 777 (0x309)
Format version : Version 1
Format profile : Layer 2
Codec ID : 4
Duration : 1h 20mn
Bit rate mode : Constant
Bit rate : 192 Kbps
Maximum bit rate : 46.3 Mbps
Channel(s) : 2 channels
Sampling rate : 48.0 KHz
Compression mode : Lossy
Delay relative to video : 136ms
Stream size : 110 MiB (2%)
Language : nar

 

 

 

UFC 224 Prelims 1080i Gelo B Download

 

 

 

Uploaded By Site DX-TV.com

 

 

 

open rar file to see this password

 

 

 

 

The password is : DX-TV.com

 

 

 

 

 

 

 

Uploaded.net + rapidgator.net

 

 

 

 

 

http://shrt10.com/M2nLDQN

 

 

 

 

 

http://shrt10.com/M6QF

 

 

 

 

 

 

 

 

 

 

UFC 224 Prelims 1080i Gelo B Download

Leave a Reply

Support HVIPS

Please Disable Ad-Block To View This site. just help us to continue this work