UFC 224 PPV 1080i Gelo B / Download

UFC 224 PPV 1080i Gelo B / Download

 

 

 


 

dx-tv.com

 

 

 

Complete name : UFC 224 PPV 1080i – Gelo B.ts
Format : MPEG-TS
File size : 10.6 GiB
Duration : 2h 3mn
Overall bit rate : 12.4 Mbps

Video
Codec ID : 27
Duration : 2h 3mn
Bit rate : 11.5 Mbps
Width : 1 920 pixels
Height : 1 080 pixels
Display aspect ratio : 16:9
Frame rate : 25.000 fps
Color space : YUV
Chroma subsampling : 4:2:0
Bit depth : 8 bits
Scan type : Interlaced
Scan order : Top Field First
Bits/(Pixel*Frame) : 0.222
Stream size : 9.88 GiB (93%)

Audio
ID : 202 (0xCA)
Menu ID : 777 (0x309)
Format version : Version 1
Format profile : Layer 2
Codec ID : 4
Duration : 2h 3mn
Bit rate mode : Constant
Bit rate : 256 Kbps
Channel(s) : 2 channels
Sampling rate : 48.0 KHz
Compression mode : Lossy
Delay relative to video : 72ms
Stream size : 225 MiB (2%)
Language : English

 

 

 

UFC 224 PPV 1080i Gelo B / Download

 

 

 

 

 

Uploaded By Site DX-TV.com

 

 

 

open rar file to see this password

 

 

 

 

The password is : DX-TV.com

 

 

 

 

 

Uploaded.net + rapidgator.net

 

 

 

 

http://shrt10.com/XZ8gt
 

http://shrt10.com/M82GSeZX
 

http://shrt10.com/dtErZI
 

http://shrt10.com/XYElN
 

 
http://shrt10.com/G6dbA
 

 
http://shrt10.com/eKjw

 

 

 

 

 

 

 

UFC 224 PPV 1080i Gelo B / Download