UFC 224 Early Prelims WEB DL /720p Watch / Download

UFC 224 Early Prelims WEB DL /720p Watch / Download

 

 

 

 


 

 

dx-tv.com

 

 

 

 

Complete name : UFC.224.Early.Prelims.WEB-DL.mp4
Format : MPEG-4
Format profile : Base Media
Codec ID : isom
File size : 1.10 GiB
Duration : 1h 44mn
Overall bit rate : 1 510 Kbps
Writing application : Lavf56.40.101

Video
ID : 1
Format : AVC
Format/Info : Advanced Video Codec
Codec ID/Info : Advanced Video Coding
Duration : 1h 44mn
Bit rate mode : Variable
Bit rate : 1 423 Kbps
Width : 960 pixels
Height : 540 pixels
Display aspect ratio : 16:9
Frame rate mode : Constant
Frame rate : 29.970 fps
Color space : YUV
Chroma subsampling : 4:2:0
Bit depth : 8 bits
Scan type : Progressive
Bits/(Pixel*Frame) : 0.092
Stream size : 1.03 GiB (94%)

Audio
ID : 2
Format : AAC
Format/Info : Advanced Audio Codec
Format profile : LC
Codec ID : 40
Duration : 1h 44mn
Bit rate mode : Constant
Bit rate : 77.6 Kbps
Channel(s) : 2 channels
Channel positions : Front: L R
Sampling rate : 44.1 KHz
Compression mode : Lossy
Stream size : 57.7 MiB (5%)

 

 

 

 

 

 
[EVENT]: UFC.224.Early.Prelims.720p.WEB-.mp4
[SIZE]: 3.16 GB
[SOURCE]: Fight Pass
[CONTAINER]: mp4
[RESOLUTION]: 1280 x 720 @ 29.970 FPS
[VIDEO]: H264 @ 4210 Kbps
[AUDIO]: AAC @ 126 kbps
[Length]: 01:44:01
[Language]: English
 

 

 

 

 

 

 

 

UFC 224 Early Prelims WEB DL /720p Watch / Download

 

 

 

 

Watch online

 

 

Waiting finish converting video

 

 

Server 1

 

 

 

 

 

 

 

 

 

 

 

 

 

 

Server 2

 

 

 

 

 

 

 


 

 

 

 

Uploaded By Site DX-TV.com

 

 

 

open rar file to see this password

 

 

 

 

The password is : DX-TV.com

 

 

 

 

400p+720p

 

 

 

 

 

Uploaded.net + rapidgator.net

 

 

 

 

 

 
http://shrt10.com/TJwo4
 

http://shrt10.com/y6U9
 

http://shrt10.com/13Rsh
 

http://shrt10.com/bkEX25e

 

 

 

 

 

 

UFC 224 Early Prelims WEB DL /720p Watch / Download