UFC 224 720p HDTV KOENiG Download

UFC 224 720p HDTV KOENiG Download

 

 

 

 

 

 

dx-tv

 

 

 

 

 Complete name : UFC.224.720p.HDTV.x264-KOENiG.mkv
Format : Matroska
File size : 4.44 GiB
Duration : 2h 55mn
Overall bit rate : 3 612 Kbps

Video
ID : 1
Format : AVC
Format/Info : Advanced Video Codec
Format settings, GOP : N=1
Codec ID : V_MPEG4/ISO/AVC
Duration : 2h 55mn
Bit rate : 3 349 Kbps
Width : 1 280 pixels
Height : 720 pixels
Display aspect ratio : 16:9
Frame rate mode : Variable
Frame rate : 50.000 fps
Color space : YUV
Chroma subsampling : 4:2:0
Bit depth : 8 bits
Scan type : Progressive
Bits/(Pixel*Frame) : 0.073
Stream size : 4.11 GiB (93%)

Audio
ID : 2
Format version : Version 1
Format profile : Layer 2
Codec ID : A_MPEG/L2
Codec ID/Hint : MP2
Duration : 2h 55mn
Bit rate mode : Constant
Bit rate : 192 Kbps
Channel(s) : 2 channels
Sampling rate : 48.0 KHz
Compression mode : Lossy
Stream size : 242 MiB (5%)
Language : English

 

 

 

 

 

 

 

 

 

UFC 224 720p HDTV KOENiG Download

 

 

 

 

 

Uploaded By Site DX-TV.com

 

 

 

open rar file to see this password

 

 

 

 

The password is : DX-TV.com

 

 

 

 

 

 

 

Uploaded.net + rapidgator.net

 

 

 

 

 

 

 
http://shrt10.com/xwPFMA9

 
http://shrt10.com/rjGNJ
 

 

 

 

 

 

 

 

UFC 224 720p HDTV KOENiG Download

Support HVIPS

Please Disable Ad-Block To View This site. just help us to continue this work