UFC 222 PPV / Prelims 1080i HDTV Fox Sport 2 HD

UFC 222 PPV / Prelims 1080i HDTV Fox Sport 2 HD

 

 

 

s

 

 

 

wwe

 

 

 

 

 

Complete name : UFC 222 PPV 1080i HDTV H264.ts
Format : MPEG-TS
Format/Info : Advanced Video Codec
File size : 13.6 GiB
Duration : 2h 34mn
Overall bit rate : 12.6 Mbps

Video
Format : AVC
Format/Info : Advanced Video Codec
Codec ID : 27
Duration : 2h 34mn
Bit rate : 11.7 Mbps
Width : 1 920 pixels
Height : 1 080 pixels
Display aspect ratio : 16:9
Frame rate : 25.000 fps
Color space : YUV
Chroma subsampling : 4:2:0
Bit depth : 8 bits
Scan type : Interlaced
Scan order : Top Field First
Bits/(Pixel*Frame) : 0.226
Stream size : 12.7 GiB (93%)

Audio
ID : 202 (0xCA)
Menu ID : 777 (0x309)
Format version : Version 1
Format profile : Layer 2
Codec ID : 3
Duration : 2h 34mn
Bit rate mode : Constant
Bit rate : 256 Kbps
Channel(s) : 2 channels
Sampling rate : 48.0 KHz
Compression mode : Lossy
Delay relative to video : -80ms
Stream size : 284 MiB (2%)
Language : Dutch

 

 

 

 

 

 

 
Complete name : UFC 222 Prelims 1080i HDTV H264.ts
Format : MPEG-TS
Format/Info : Audio Coding 3
File size : 3.04 GiB
Duration : 1h 25mn
Overall bit rate : 5 112 Kbps

Video
Format : AVC
Format/Info : Advanced Video Codec
Codec ID : 27
Duration : 1h 25mn
Bit rate : 4 472 Kbps
Width : 1 280 pixels
Height : 720 pixels
Display aspect ratio : 16:9
Frame rate : 59.940 fps
Color space : YUV
Chroma subsampling : 4:2:0
Bit depth : 8 bits
Scan type : MBAFF
Bits/(Pixel*Frame) : 0.081
Stream size : 2.66 GiB (87%)

Audio
ID : 4128 (0x1020)
Menu ID : 777 (0x309)
Format : AC-3
Codec ID : 129
Duration : 1h 25mn
Bit rate mode : Constant
Bit rate : 384 Kbps
Channel(s) : 6 channels
Sampling rate : 48.0 KHz
Bit depth : 16 bits
Compression mode : Lossy
Stream size : 234 MiB (8%)
Language : English

 

 

 

 

 

 

 

 

 

 

 

 

UFC 222 PPV / Prelims 1080i HDTV Fox Sport 2 HD

 

 

 

 

Uploaded By Site DX-TV.com

 

 

 

open rar file to see this password

 

 

 

 

The password is : DX-TV.com

 

 

 

 

1080i

 

 

 

 

 

Uploaded.net + rapidgator.net

 

 

 

 

 

 

http://shrt10.com/6eYpj

 

http://shrt10.com/qhBK5lf

 

http://shrt10.com/jrhOYQk

 

http://shrt10.com/6nG8

 

http://shrt10.com/z0ny

 

http://shrt10.com/9J4vMw

 

http://shrt10.com/rl1a

 

http://shrt10.com/ahJiBF8P

 

http://shrt10.com/PyebSbuB

 

http://shrt10.com/RMiG

 

 

 

 

 

 

 

 

 

 

 

UFC 222 PPV / Prelims 1080i HDTV Fox Sport 2 HD