UFC 218 PPV Holloway vs Aldo 2 1080p HDTV Ebi

UFC 218 PPV Holloway vs Aldo 2 1080p HDTV Ebi

 

 

 

 

 

 

wwe

 

 

 

 

 

 

 

 

 

Complete name : UFC.218.PPV.Holloway.vs.Aldo.2.1080p.HDTV.x264-Ebi.mp4
Format : MPEG-4
Format profile : Base Media / Version 2
Codec ID : mp42
File size : 10.3 GiB
Duration : 2h 49mn
Overall bit rate : 8 726 Kbps

Video
ID : 1
Format : AVC
Format/Info : Advanced Video Codec
Codec ID : avc1
Codec ID/Info : Advanced Video Coding
Duration : 2h 49mn
Bit rate mode : Variable
Bit rate : 8 500 Kbps
Width : 1 920 pixels
Height : 1 080 pixels
Display aspect ratio : 16:9
Frame rate mode : Constant
Frame rate : 29.970 fps
Color space : YUV
Chroma subsampling : 4:2:0
Bit depth : 8 bits
Scan type : Progressive
Bits/(Pixel*Frame) : 0.137
Stream size : 10.0 GiB (97%)

Audio
ID : 2
Format : AAC
Format/Info : Advanced Audio Codec
Format profile : LC
Codec ID : 40
Duration : 2h 49mn
Bit rate mode : Variable
Bit rate : 224 Kbps
Channel(s) : 2 channels
Channel positions : Front: L R
Sampling rate : 48.0 KHz
Compression mode : Lossy
Stream size : 271 MiB (3%)
Title : Stereo

 

 

 

 

 

 

 

 

 

 

 

 

 

 

 

UFC 218 PPV Holloway vs Aldo 2 1080p HDTV Ebi

 

 

 

 

 

Uploaded By Site DX-TV.com

 

 

 

open rar file to see this password

 

 

 

 

The password is : DX-TV.com

 

 

 

 

1080p

 

 

 

Uploaded.net

 

 

 

 

 

 

 

http://shrt10.com/rzachs

 

 

 

http://shrt10.com/khnew6s

 

 

 

http://shrt10.com/JPa9k

 

 

 

 

 

rapidgator.net

 

 

 

 

 

 

 

http://shrt10.com/CpjJ8

 

 

 

 

http://shrt10.com/SrsWKx

 

 

http://shrt10.com/IbpoZnl

 

 

 

 

 

 

 

 

UFC 218 PPV Holloway vs Aldo 2 1080p HDTV Ebi

Support HVIPS

Please Disable Ad-Block To View This site. just help us to continue this work