Shoot Interview I am with Spud Swoggle mp4

Shoot Interview I am with Spud Swoggle mp4

 

 

 

 

 

 

wwe

 

 

 

 

 

 
Complete name : I’m with Spud…Swoggle.mp4
Format : MPEG-4
Format profile : Base Media
Codec ID : isom
File size : 969 MiB
Duration : 1h 24mn
Overall bit rate : 1 605 Kbps

Video
ID : 2
Format : AVC
Format/Info : Advanced Video Codec
Codec ID : avc1
Codec ID/Info : Advanced Video Coding
Duration : 1h 24mn
Bit rate mode : Variable
Bit rate : 1 496 Kbps
Width : 854 pixels
Height : 480 pixels
Display aspect ratio : 16:9
Frame rate mode : Constant
Frame rate : 29.970 fps
Color space : YUV
Chroma subsampling : 4:2:0
Bit depth : 8 bits
Scan type : Progressive
Bits/(Pixel*Frame) : 0.122
Stream size : 903 MiB (93%)

Audio
ID : 1
Format : AAC
Format/Info : Advanced Audio Codec
Format profile : LC
Codec ID : 40
Duration : 1h 24mn
Bit rate mode : Constant
Bit rate : 102 Kbps
Channel(s) : 2 channels
Channel positions : Front: L R
Sampling rate : 48.0 KHz
Compression mode : Lossy
Stream size : 61.7 MiB (6%)

 

 

 

 

 

 

I’m with Spud…Swoggle
Video Duration: 01:24:27

Description

On what could be the final episode of I’m with Spud we have a guest who is actually shorter than our beloved host Rockstar Spud. That wee little man is Swoggle!

So get comfortable on the sofa for a wild and crazy ride as these two little dudes go all over the place. From sniffing butt cracks, belly buttons, and having a barfing contest this is one crazy episode of I’m with Spud!

There is also talk of Ahmed Johnson and of course a Goldust impression as well. Plus special guest Curt Hawkins. Who gets more face time in this interview than anywhere else???

Topics include:
-Grammar
-Warwick Davis
-Leprechaun
-Midget vs Little Person
-Crap Pants
-Hawkins Face
 

 

 

 

 

 

 

 

 

 

 

 

Shoot Interview I am with Spud Swoggle mp4

 

 

 

 

Watch online

 

 

Waiting finish converting video

 

 

Server 1

 

 

 

 

 

 

 

 

 

 

 

 

 

 

 

 

 

 

 

 

Server 2

 

 

 

 

 

 

 

 

 

 

 

 


 

 

 

 

 

 

 

 

Uploaded By Site DX-TV.com

 

 

 

open rar file to see this password

 

 

 

 

The password is : DX-TV.com

 

 

 

 

 

 

 

 

 

rapidgator.net

 

 

 

 

 

 

 

 

 

 

 

http://shrt10.com/3qq0jG2

 

 

 

 

 

 

 

 

 

Shoot Interview I am with Spud Swoggle mp4