ROH Wrestling 15th June 2018 720p WEBRip TJ Watch / Download

ROH Wrestling 15th June 2018 720p WEBRip TJ Watch / Download

 

 

 

 


 

 

dx-tv.com

 

 

 

 

 

 
Complete name : ROH.Wrestling.15th.June.2018.720p.WEBRip.h264-TJ.m4v
Format : MPEG-4
Format profile : Base Media / Version 2
Codec ID : mp42
File size : 1.13 GiB
Duration : 50mn 58s
Overall bit rate : 3 173 Kbps
Encoded date : UTC 2018-06-18 19:10:35
Tagged date : UTC 2018-06-18 19:10:35

Video
ID : 1
Format : AVC
Format/Info : Advanced Video Codec
Codec ID : avc1
Codec ID/Info : Advanced Video Coding
Duration : 50mn 58s
Bit rate mode : Variable
Bit rate : 3 072 Kbps
Width : 1 280 pixels
Height : 720 pixels
Display aspect ratio : 16:9
Frame rate mode : Variable
Frame rate : 29.970 fps
Minimum frame rate : 29.960 fps
Maximum frame rate : 29.970 fps
Color space : YUV
Chroma subsampling : 4:2:0
Bit depth : 8 bits
Scan type : Progressive
Bits/(Pixel*Frame) : 0.111
Stream size : 1.08 GiB (96%)

Audio
ID : 2
Format : AAC
Format/Info : Advanced Audio Codec
Format profile : LC
Codec ID : 40
Duration : 50mn 58s
Bit rate mode : Variable
Bit rate : 127 Kbps
Channel(s) : 2 channels
Channel positions : Front: L R
Sampling rate : 44.1 KHz
Compression mode : Lossy
Stream size : 46.4 MiB (4%)
Title : Stereo
Language : English
Encoded date : UTC 2018-06-18 19:10:35
Tagged date : UTC 2018-06-18 19:10:35

 

 

 

 

 

ROH Wrestling 15th June 2018 720p WEBRip TJ Watch / Download

 

 

 

 

Watch online

 

 

Waiting finish converting video

 

 

Server 1

 

 

 

 

 

 

 

 

 

 

 

 

 

 

 

 

 

Server 2

 

 

 

 

 

 

 


 

 

 

 

Uploaded By Site DX-TV.com

 

 

 

open rar file to see this password

 

 

 

 

The password : DX-TV.com

 

 

 

 

Uploaded.net + rapidgator.net

 

 

 

 

 

http://shrt10.com/c9Y03JI

 

 

 

 

http://shrt10.com/otxiXvX

 

 

 

 

 

 

 

 

 

 

 

ROH Wrestling 15th June 2018 720p WEBRip TJ Watch / Download