ROH 2018 05 12 War of the Worlds Tour Royal Oak 720p WEB HEEL Watch /Download

ROH 2018 05 12 War of the Worlds Tour Royal Oak 720p WEB HEEL Watch /Download

 

 

 

 

 

 

dx-tv

 

 

 

 

 

 

 
Complete name : ROH.2018.05.12.War.of.the.Worlds.Tour.Royal.Oak.720p.WEB.h264-HEEL.mp4
Format : MPEG-4
Format profile : Base Media
Codec ID : isom
File size : 3.04 GiB
Duration : 2h 56mn
Overall bit rate : 2 470 Kbps
Writing application : Lavf58.2.103

Video
ID : 1
Format : AVC
Format/Info : Advanced Video Codec
Codec ID : avc1
Codec ID/Info : Advanced Video Coding
Duration : 2h 56mn
Bit rate mode : Variable
Bit rate : 2 332 Kbps
Width : 1 280 pixels
Height : 720 pixels
Display aspect ratio : 16:9
Frame rate mode : Variable
Frame rate : 30.000 fps
Minimum frame rate : 24.979 fps
Maximum frame rate : 30.303 fps
Color space : YUV
Chroma subsampling : 4:2:0
Bit depth : 8 bits
Scan type : Progressive
Bits/(Pixel*Frame) : 0.084
Stream size : 2.87 GiB (94%)

Audio
ID : 2
Format : AAC
Format/Info : Advanced Audio Codec
Format profile : LC
Codec ID : 40
Duration : 2h 56mn
Bit rate mode : Constant
Bit rate : 129 Kbps
Channel(s) : 2 channels
Channel positions : Front: L R
Sampling rate : 48.0 KHz
Compression mode : Lossy
Stream size : 163 MiB (5%)

 

 

 

 

 

 

 

 

 

ROH 2018 05 12 War of the Worlds Tour Royal Oak 720p WEB HEEL Watch /Download

 

 

 

 

Watch online

 

 

Waiting finish converting video

 

 

Server 1

 

 

 

 

 

 

 

 

 

 

 

 

 

 

 

 

 

 

 

 

 

Server 2

 

 

 

 

 

 

 

p;

 

 

 

 

 

 

 

 

 

 

Uploaded By Site DX-TV.com

 

 

 

open rar file to see this password

 

 

 

 

The password is : DX-TV.com

 

 

 

 

 

 

Uploaded.net + rapidgator.net

 

 

 

 

 

 

 
http://shrt10.com/73BRKWGE

 
http://shrt10.com/7ixQOM
 

 

 

 

 

 

 

 

ROH 2018 05 12 War of the Worlds Tour Royal Oak 720p WEB HEEL Watch /Download

Leave a Reply

Support HVIPS

Please Disable Ad-Block To View This site. just help us to continue this work