ROH 2018 05 11 War of the Worlds Tour Toronto 720p WEB HEEL Watch / Download

ROH 2018 05 11 War of the Worlds Tour Toronto 720p WEB HEEL Watch / Download

 

 

 

 

 

 

 

 

 

dx-tv.com

 

 

 

 

 

Complete name : ROH.2018.05.11.War.of.the.Worlds.Tour.Toronto.720p.WEB.h264-HEEL.mp4
Format : MPEG-4
Format profile : Base Media
Codec ID : isom
File size : 3.33 GiB
Duration : 3h 14mn
Overall bit rate : 2 449 Kbps
Writing application : Lavf58.2.103

Video
ID : 1
Format : AVC
Format/Info : Advanced Video Codec
Codec ID : avc1
Codec ID/Info : Advanced Video Coding
Duration : 3h 14mn
Bit rate mode : Variable
Bit rate : 2 312 Kbps
Width : 1 280 pixels
Height : 720 pixels
Display aspect ratio : 16:9
Frame rate mode : Variable
Frame rate : 30.000 fps
Minimum frame rate : 19.355 fps
Maximum frame rate : 30.303 fps
Color space : YUV
Chroma subsampling : 4:2:0
Bit depth : 8 bits
Scan type : Progressive
Bits/(Pixel*Frame) : 0.084
Stream size : 3.14 GiB (94%)

Audio
ID : 2
Format : AAC
Format/Info : Advanced Audio Codec
Format profile : LC
Codec ID : 40
Duration : 3h 14mn
Bit rate mode : Constant
Bit rate : 128 Kbps
Channel(s) : 2 channels
Channel positions : Front: L R
Sampling rate : 48.0 KHz
Compression mode : Lossy
Stream size : 179 MiB (5%)

 

 

 

 

 

 

 

 

ROH 2018 05 11 War of the Worlds Tour Toronto 720p WEB HEEL Watch / Download

 

 

 

 

Watch online

 

 

Waiting finish converting video

 

 

Server 1

 

 

 

 

 

 

 

 

 

 

 

 

 

Server 2

 

 

 

 

 

 


 

 

 

 

 

Uploaded By Site DX-TV.com

 

 

 

open rar file to see this password

 

 

 

 

The password is : DX-TV.com

 

 

 

 

 

 

 

Uploaded.net + rapidgator.net

 

 

 

 

 

 

http://shrt10.com/BbxL

 

 

 

 

 

http://shrt10.com/YnnIIg

 

 

 

 

 

 

 

 

 

ROH 2018 05 11 War of the Worlds Tour Toronto 720p WEB HEEL Watch / Download

Leave a Reply

Support HVIPS

Please Disable Ad-Block To View This site. just help us to continue this work