ROH 2018 04 27 Bound By Honor West Palm Beach 720p WEB HEEL Watch / Download

ROH 2018 04 27 Bound By Honor West Palm Beach 720p WEB HEEL Watch / Download

 

 

 

 

 

 

 

 

dx-tv.com

 

 

 

 

 

 

Complete name : ROH.2018.04.27.Bound.By.Honor.West.Palm.Beach.720p.WEB.h264-HEEL.mp4
Format : MPEG-4
Format profile : Base Media
Codec ID : isom
File size : 3.14 GiB
Duration : 2h 56mn
Overall bit rate : 2 546 Kbps
Encoded date : UTC 2018-04-28 04:53:17
Tagged date : UTC 2018-04-28 04:53:17

Video
ID : 1
Format : AVC
Format/Info : Advanced Video Codec
Format profile : High@L3.1
Codec ID : avc1
Codec ID/Info : Advanced Video Coding
Duration : 2h 56mn
Bit rate mode : Variable
Bit rate : 2 410 Kbps
Maximum bit rate : 28.0 Mbps
Width : 1 280 pixels
Height : 720 pixels
Display aspect ratio : 16:9
Frame rate mode : Variable
Frame rate : 30.000 fps
Minimum frame rate : 21.583 fps
Maximum frame rate : 30.303 fps
Color space : YUV
Chroma subsampling : 4:2:0
Bit depth : 8 bits
Scan type : Progressive
Bits/(Pixel*Frame) : 0.087
Stream size : 2.98 GiB (95%)

Audio
ID : 2
Format : AAC
Format/Info : Advanced Audio Codec
Format profile : LC
Codec ID : 40
Duration : 2h 56mn
Bit rate mode : Variable
Bit rate : 132.3 Kbps
Maximum bit rate : 142 Kbps
Channel(s) : 2 channels
Channel positions : Front: L R
Sampling rate : 48.0 KHz
Compression mode : Lossy
Stream size : 164 MiB (5%)
Language : English

 

 

 

 

 

 

 

 

ROH 2018 04 27 Bound By Honor West Palm Beach 720p WEB HEEL Watch / Download

 

 

 

 

Watch online

 

 

Waiting finish converting video

 

 

Server 1

 

 

 

 

 

 

 

 

 

 

 

 

 

 

 

Server 2

 

 

 

 

 

 

 


 

 

 

 

 

Uploaded By Site DX-TV.com

 

 

 

open rar file to see this password

 

 

 

 

The password is : DX-TV.com

 

 

 

 

720p

 

 

 

 

 

Uploaded.net + rapidgator.net

 

 

 

 

 

http://shrt10.com/ZOeB

 

 

 

 

 

 

http://shrt10.com/hNhLvSMR

 

 

 

 

 

 

 

 

 

ROH 2018 04 27 Bound By Honor West Palm Beach 720p WEB HEEL Watch / Download

Leave a Reply

Support HVIPS

Please Disable Ad-Block To View This site. just help us to continue this work