ROH 2018 04 15 Masters of the Craft 720p WEB HEEL Watch / Download

ROH 2018 04 15 Masters of the Craft 720p WEB HEEL Watch / Download

 

 

 

 

 

 

 

 

 

dx-tv.com

 

 

 

 

 

Complete name : ROH.2018.04.15.Masters.of.the.Craft.720p.WEB.h264-HEEL.mp4
Format : MPEG-4
Format profile : Base Media
Codec ID : isom
File size : 3.12 GiB
Duration : 2h 55mn
Overall bit rate : 2 542 Kbps
Encoded date : UTC 2018-04-16 04:01:06
Tagged date : UTC 2018-04-16 04:01:06

Video
ID : 1
Format : AVC
Format/Info : Advanced Video Codec
Format profile : High@L3.1
Codec ID : avc1
Codec ID/Info : Advanced Video Coding
Duration : 2h 55mn
Bit rate mode : Variable
Bit rate : 2 407 Kbps
Maximum bit rate : 21.4 Mbps
Width : 1 280 pixels
Height : 720 pixels
Display aspect ratio : 16:9
Frame rate mode : Variable
Frame rate : 30.000 fps
Minimum frame rate : 25.105 fps
Maximum frame rate : 30.303 fps
Color space : YUV
Chroma subsampling : 4:2:0
Bit depth : 8 bits
Scan type : Progressive
Bits/(Pixel*Frame) : 0.087
Stream size : 2.95 GiB (95%)
Tagged date : UTC 2018-04-16 04:02:44

Audio
ID : 2
Format : AAC
Format/Info : Advanced Audio Codec
Format profile : LC
Codec ID : 40
Duration : 2h 55mn
Bit rate mode : Variable
Bit rate : 129 Kbps
Maximum bit rate : 149 Kbps
Channel(s) : 2 channels
Channel positions : Front: L R
Sampling rate : 44.1 KHz
Compression mode : Lossy
Stream size : 163 MiB (5%)
Tagged date : UTC 2018-04-16 04:02:44

 

 

 

 

 

 

 

ROH 2018 04 15 Masters of the Craft 720p WEB HEEL Watch / Download

 

 

 

 

Watch online

 

 

Waiting finish converting video

 

 

Server 1

 

 

 

 

 

 

 

 

 

 

 

Server 2

 

 

 

 

 

 

 


 

 

 

 

 

 

Uploaded By Site DX-TV.com

 

 

 

open rar file to see this password

 

 

 

 

The password is : DX-TV.com

 

 

 

 

720p

 

 

 

 

 

Uploaded.net + rapidgator.net

 

 

 

 

 

http://shrt10.com/wFXvqk

 

 

 

 

http://shrt10.com/sS3jIDL

 

 

 

 

ROH 2018 04 15 Masters of the Craft 720p WEB HEEL Watch / Download

Support HVIPS

Please Disable Ad-Block To View This site. just help us to continue this work