RF Video Tracy Smothers Shoot Interview Watch / Download

RF Video Tracy Smothers Shoot Interview Watch / Download

 

 

 

 


 

 

dx-tv.com

 

 

 
Complete name : RF Video – Tracy Smothers (5 Hour Shoot Interview).mp4
Format : MPEG-4
Format profile : Base Media
Codec ID : isom
File size : 3.22 GiB
Duration : 4h 51mn
Overall bit rate : 1 581 Kbps
Writing application : Lavf55.12.100

Video
ID : 2
Format : AVC
Format/Info : Advanced Video Codec
Codec ID : avc1
Codec ID/Info : Advanced Video Coding
Duration : 4h 51mn
Bit rate mode : Variable
Bit rate : 1 496 Kbps
Width : 854 pixels
Height : 480 pixels
Display aspect ratio : 16:9
Frame rate mode : Constant
Frame rate : 29.970 fps
Color space : YUV
Chroma subsampling : 4:2:0
Bit depth : 8 bits
Scan type : Progressive
Bits/(Pixel*Frame) : 0.122
Stream size : 3.04 GiB (95%)

Audio
ID : 1
Format : AAC
Format/Info : Advanced Audio Codec
Format profile : LC
Codec ID : 40
Duration : 4h 51mn
Bit rate mode : Variable
Bit rate : 77.9 Kbps
Maximum bit rate : 81.4 Kbps
Channel(s) : 2 channels
Channel positions : Front: L R
Sampling rate : 48.0 KHz
Compression mode : Lossy
Stream size : 162 MiB (5%)

 

 

 

 

 

RF Video Tracy Smothers Shoot Interview Watch / Download

 

 

 

 

Watch online

 

 

Waiting finish converting video

 

 

Server 1

 

 

 

 

 

 

 

 

 

 

 

 

 

Server 2

 

 

 

 

 

 


 

 

 

 

Uploaded By Site DX-TV.com

 

 

 

open rar file to see this password

 

 

 

 

The password is : DX-TV.com

 

 

 

 

 

 

 

Uploaded.net + rapidgator.net

 

 

 

 

 
http://shrt10.com/J4mL

 
http://shrt10.com/t2KYh
 

 

 

 

 

 

 

 

RF Video Tracy Smothers Shoot Interview Watch / Download