PWX 2018 06 24 Dawn of a New Day WEB NCMP Watch / Download

PWX 2018 06 24 Dawn of a New Day WEB NCMP Watch / Download

 

 

 

 


 

 

 

dx-tv.com

 

 

 

 

 

 

 
Complete name : PWX.2018.06.24.Dawn.of.a.New.Day.WEB.h264-NCMP.mp4
Format : MPEG-4
Format profile : Base Media
Codec ID : isom
File size : 1.70 GiB
Duration : 2h 34mn
Overall bit rate : 1 571 Kbps

Video
ID : 2
Format : AVC
Format/Info : Advanced Video Codec
Codec ID : avc1
Codec ID/Info : Advanced Video Coding
Duration : 2h 34mn
Bit rate mode : Variable
Bit rate : 1 495 Kbps
Width : 854 pixels
Height : 480 pixels
Display aspect ratio : 16:9
Frame rate mode : Constant
Frame rate : 29.970 fps
Color space : YUV
Chroma subsampling : 4:2:0
Bit depth : 8 bits
Scan type : Progressive
Bits/(Pixel*Frame) : 0.122
Stream size : 1.62 GiB (95%)

Audio
ID : 1
Format : AAC
Format/Info : Advanced Audio Codec
Format profile : LC
Codec ID : 40
Duration : 2h 34mn
Bit rate mode : Variable
Bit rate : 68.9 Kbps
Maximum bit rate : 98.6 Kbps
Channel(s) : 2 channels
Channel positions : Front: L R
Sampling rate : 48.0 KHz
Compression mode : Lossy
Stream size : 76.4 MiB (4%)

 

 

 

 

 

PWX 2018 06 24 Dawn of a New Day WEB NCMP Watch / Download

 

 

 

 

Watch online

 

 

Waiting finish converting video

 

 

Server 1

 

 

 

 

 

 

 

 

 

 

 

 

 

 

 

 

Server 2

 

 

 

 

 

 


 

 

 

 

 

 

 

Uploaded By Site DX-TV.com

 

 

 

open rar file to see this password

 

 

 

 

The password : DX-TV.com

 

 

 

 

 

Uploaded.net + rapidgator.net

 

 

 

 

 

 
http://shrt10.com/KjcJY

 
http://shrt10.com/xVoQbn
 

 

 

 

 

 

 

 

 

PWX 2018 06 24 Dawn of a New Day WEB NCMP Watch / Download

Support HVIPS

Please Disable Ad-Block To View This site. just help us to continue this work