PROGRESS Wrestling 2018 05 07 Chapter 68 Super Strong Style 16 Day Three WEB iNDYHEEL Watch / Download

PROGRESS Wrestling 2018 05 07 Chapter 68 Super Strong Style 16 Day Three WEB iNDYHEEL Watch / Download

 

 

 

 


 

dx-tv.com

 

 

 

 

Complete name : PROGRESS.Wrestling.2018.05.07.Chapter.68.Super.Strong.Style.16.Day.Three.WEB.h264-iNDYHEEL.mp4
Format : MPEG-4
Format profile : Base Media
Codec ID : isom
File size : 2.10 GiB
Duration : 3h 9mn
Overall bit rate : 1 590 Kbps
Writing application : Lavf58.2.103

Video
ID : 1
Format : AVC
Format/Info : Advanced Video Codec
Codec ID : avc1
Codec ID/Info : Advanced Video Coding
Duration : 3h 9mn
Bit rate mode : Variable
Bit rate : 1 493 Kbps
Width : 854 pixels
Height : 480 pixels
Display aspect ratio : 16:9
Frame rate mode : Constant
Frame rate : 29.970 fps
Color space : YUV
Chroma subsampling : 4:2:0
Bit depth : 8 bits
Scan type : Progressive
Bits/(Pixel*Frame) : 0.122
Stream size : 1.98 GiB (94%)

Audio
ID : 2
Format : AAC
Format/Info : Advanced Audio Codec
Format profile : LC
Codec ID : 40
Duration : 3h 9mn
Bit rate mode : Constant
Bit rate : 89.9 Kbps
Channel(s) : 2 channels
Channel positions : Front: L R
Sampling rate : 44.1 KHz
Compression mode : Lossy
Stream size : 122 MiB (6%)

 

 

 

 

 

 

 

 

PROGRESS Wrestling 2018 05 07 Chapter 68 Super Strong Style 16 Day Three WEB iNDYHEEL Watch / Download

 

 

 

 

Watch online

 

 

Waiting finish converting video

 

 

Server 1

 

 

 

 

 

 

 

 

 

 

 

 

 

 

 

 

Server 2

 

 

 

 

 

 

 

 

 

 

 

 

 

 

 

 

Uploaded By Site DX-TV.com

 

 

 

open rar file to see this password

 

 

 

 

The password is : DX-TV.com

 

 

 

 

 

Uploaded.net + rapidgator.net

 

 

 

 

 
http://shrt10.com/6zJYAx1

 
http://shrt10.com/lHJEb8fg
 

 

 

 

 

 

 

 

 

PROGRESS Wrestling 2018 05 07 Chapter 68 Super Strong Style 16 Day Three WEB iNDYHEEL Watch / Download