PROGRESS Wrestling 2018 05 06 Chapter 68 Super Strong Style 16 Day 2 480p WEB x264 DX-TV Watch /Download

PROGRESS Wrestling 2018 05 06 Chapter 68 Super Strong Style 16 Day 2 480p WEB x264 DX-TV Watch /Download

 

 

 

 

 

 

 

 

dx-tv

 

 

 

 

 
Complete name : PROGRESS.Wrestling.2018.05.06.Chapter.68.Super.Strong.Style.16.Day.2.480p.WEB x264 DX-TV.mp4
Format : MPEG-4
Format profile : Base Media / Version 2
Codec ID : mp42
File size : 2.25 GiB
Duration : 3h 17mn
Overall bit rate : 1 637 Kbps
Encoded date : UTC 2018-05-13 09:46:10
Tagged date : UTC 2018-05-13 09:46:10

Video
ID : 1
Format : AVC
Format/Info : Advanced Video Codec
Codec ID : avc1
Codec ID/Info : Advanced Video Coding
Duration : 3h 17mn
Bit rate mode : Variable
Bit rate : 1 500 Kbps
Width : 720 pixels
Height : 480 pixels
Display aspect ratio : 3:2
Frame rate mode : Constant
Frame rate : 29.970 fps
Standard : NTSC
Color space : YUV
Chroma subsampling : 4:2:0
Bit depth : 8 bits
Scan type : Progressive
Bits/(Pixel*Frame) : 0.145
Stream size : 2.07 GiB (92%)

Audio
ID : 2
Format : AAC
Format/Info : Advanced Audio Codec
Format profile : LC
Codec ID : 40
Duration : 3h 17mn
Bit rate mode : Variable
Bit rate : 128 Kbps
Channel(s) : 2 channels
Channel positions : Front: L R
Sampling rate : 44.1 KHz
Compression mode : Lossy
Stream size : 181 MiB (8%)
Title : Stereo
Encoded date : UTC 2018-05-13 09:46:10
Tagged date : UTC 2018-05-13 09:46:10

 

 

 

 

 

 

 

 

 

PROGRESS Wrestling 2018 05 06 Chapter 68 Super Strong Style 16 Day 2 480p WEB x264 DX-TV Watch /Download

 

 

 

 

Watch online

 

 

Waiting finish converting video

 

 

Server 1

 

 

 

 

 

 

 

 

 

 

 

 

 

 

 

 

 

 

Server 2

 

 

 

 

 

 

 


 

 

 

 

 

Uploaded By Site DX-TV.com

 

 

 

open rar file to see this password

 

 

 

 

The password is : DX-TV.com

 

 

 

 

 

 

Uploaded.net + rapidgator.net

 

 

 

 

 

 
http://shrt10.com/hGLwA

 
http://shrt10.com/fjX90al6
 

 

 

 

 

 

 

PROGRESS Wrestling 2018 05 06 Chapter 68 Super Strong Style 16 Day 2 480p WEB x264 DX-TV Watch /Download

Leave a Reply

Support HVIPS

Please Disable Ad-Block To View This site. just help us to continue this work