PROGRESS Wrestling 2018 04 07 Chapter 67 1080p WEB iNDYHEEL Watch / Download

PROGRESS Wrestling 2018 04 07 Chapter 67 1080p WEB iNDYHEEL Watch / Download

 

 

 

 

 

 

 

 

 

dx-tv.com

 

 

 

 

 

 

 
Complete name : PROGRESS.Wrestling.2018.04.07.Chapter.67.1080p.WEB.h264-iNDYHEEL.mp4
Format : MPEG-4
Format profile : Base Media
Codec ID : isom
File size : 4.39 GiB
Duration : 2h 35mn
Overall bit rate : 4 051 Kbps
Writing application : Lavf58.2.103

Video
ID : 1
Format : AVC
Format/Info : Advanced Video Codec
Codec ID : avc1
Codec ID/Info : Advanced Video Coding
Duration : 2h 35mn
Bit rate mode : Variable
Bit rate : 3 981 Kbps
Width : 1 920 pixels
Height : 1 080 pixels
Display aspect ratio : 16:9
Frame rate mode : Constant
Frame rate : 29.970 fps
Color space : YUV
Chroma subsampling : 4:2:0
Bit depth : 8 bits
Scan type : Progressive
Bits/(Pixel*Frame) : 0.064
Stream size : 4.31 GiB (98%)

Audio
ID : 2
Format : AAC
Format/Info : Advanced Audio Codec
Format profile : LC
Codec ID : 40
Duration : 2h 35mn
Bit rate mode : Variable
Bit rate : 61.3 Kbps
Maximum bit rate : 104 Kbps
Channel(s) : 2 channels
Channel positions : Front: L R
Sampling rate : 44.1 KHz
Compression mode : Lossy
Stream size : 68.0 MiB (2%)

 

 

 

 

 

 

PROGRESS Wrestling 2018 04 07 Chapter 67 1080p WEB iNDYHEEL Watch / Download

 

 

 

 

Watch online

 

 

Waiting finish converting video

 

 

Server 1

 

 

 

 

 

 

 

 

 

 

 

 

 

 

Server 2

 

 

 

 

 


 

 

 

Uploaded By Site DX-TV.com

 

 

 

open rar file to see this password

 

 

 

 

The password is : DX-TV.com

 

 

 

 

 

 

 

 

Uploaded.net + rapidgator.net

 

 

 

 

 

 

http://shrt10.com/wtWru

 

 

 

 

 

 

http://shrt10.com/dx9L

 

 

 

 

 

 

 

 

PROGRESS Wrestling 2018 04 07 Chapter 67 1080p WEB iNDYHEEL Watch / Download