PROGRESS Wrestling 2018 04 06 Chapter 66 WEB iNDYHEEL /720p Watch / Download

PROGRESS Wrestling 2018 04 06 Chapter 66 WEB iNDYHEEL /720p Watch / Download

 

 

 

 

 

 

 

 

 

dx-tv.com

 

 

 

 

 

 

 

 
Complete name : PROGRESS.Wrestling.2018.04.06.Chapter.66.WEB.h264-iNDYHEEL.mp4
Format : MPEG-4
Format profile : Base Media
Codec ID : isom
File size : 1.97 GiB
Duration : 3h 0mn
Overall bit rate : 1 564 Kbps
Writing application : Lavf58.2.103

Video
ID : 1
Format : AVC
Format/Info : Advanced Video Codec
Codec ID : avc1
Codec ID/Info : Advanced Video Coding
Duration : 3h 0mn
Bit rate mode : Variable
Bit rate : 1 494 Kbps
Width : 854 pixels
Height : 480 pixels
Display aspect ratio : 16:9
Frame rate mode : Constant
Frame rate : 29.970 fps
Color space : YUV
Chroma subsampling : 4:2:0
Bit depth : 8 bits
Scan type : Progressive
Bits/(Pixel*Frame) : 0.122
Stream size : 1.88 GiB (96%)

Audio
ID : 2
Format : AAC
Format/Info : Advanced Audio Codec
Format profile : LC
Codec ID : 40
Duration : 3h 0mn
Bit rate mode : Variable
Bit rate : 62.6 Kbps
Maximum bit rate : 104 Kbps
Channel(s) : 2 channels
Channel positions : Front: L R
Sampling rate : 44.1 KHz
Compression mode : Lossy
Stream size : 80.7 MiB (4%)

 

 

 

 

 

 

 

 

 
Grizzled Young Veterans (c) vs Moustache Mountain – PROGRESS World Tag Team Titles Match, if Moustache Mountain lose they cannot challenge again for 6 months

Mark Haskins vs Will Ospreay
Ringkampf vs David Starr and ???

Austin Theory vs Joey Janela vs Darby Allin vs MJF vs Chris Brookes vs Jeff Cobb vs Parrow vs Rickey Shane Page – Thunderbastard Match

Jinny & Mercedes Martinez vs Toni Storm & Shazza McKenzie

Matt Riddle vs Jimmy Havoc

Pete Dunne vs Mark Andrews vs Flash Morgan Webster

Travis Banks (c) vs Shane Strickland – PROGRESS World Title Match

Please note, there is no commentary on this show at the moment due to technical problems. Our intention is to re-record commentary when we can.
 

 

 

 

 

PROGRESS Wrestling 2018 04 06 Chapter 66 WEB iNDYHEEL /720p Watch / Download

 

 

 

 

Watch online

 

 

Waiting finish converting video

 

 

Server 1

 

 

 

 

 

 

 

 

 

 

 

 

 

 

 

Server 2

 

 

 

 

 

 


 

 

 

 

Uploaded By Site DX-TV.com

 

 

 

open rar file to see this password

 

 

 

 

The password is : DX-TV.com

 

 

 

 

400p+720p

 

 

 

 

 

Uploaded.net + rapidgator.net

 

 

 

 

 

 

http://shrt10.com/jbAHfX

 

 

http://shrt10.com/4Ov5

 

 

http://shrt10.com/vW4I

 

 

http://shrt10.com/UJqqZlq

 

http://shrt10.com/vfpAW

 

http://shrt10.com/zsbfw5

 

 

 

 

 

 

PROGRESS Wrestling 2018 04 06 Chapter 66 WEB iNDYHEEL /720p Watch / Download