Pancrase 295 WEB SF63 /720p Watch /Download

Pancrase 295 WEB SF63 /720p Watch /Download

 

 

 

 

 

dx-tv

 

 

 

 

 

 

 
Complete name : Pancrase.295.WEB.h264-SF63.mp4
Format : MPEG-4
Format profile : Base Media
Codec ID : isom
File size : 2.70 GiB
Duration : 4h 13mn
Overall bit rate : 1 528 Kbps
Writing application : Lavf56.40.101

Video
ID : 1
Format : AVC
Format/Info : Advanced Video Codec
Codec ID : avc1
Codec ID/Info : Advanced Video Coding
Duration : 4h 13mn
Bit rate mode : Variable
Bit rate : 1 441 Kbps
Width : 960 pixels
Height : 540 pixels
Display aspect ratio : 16:9
Frame rate mode : Constant
Frame rate : 29.970 fps
Color space : YUV
Chroma subsampling : 4:2:0
Bit depth : 8 bits
Scan type : Progressive
Bits/(Pixel*Frame) : 0.093
Stream size : 2.55 GiB (94%)

Audio
ID : 2
Format : AAC
Format/Info : Advanced Audio Codec
Format profile : LC
Codec ID : 40
Duration : 4h 13mn
Bit rate mode : Constant
Bit rate : 77.6 Kbps
Channel(s) : 2 channels
Channel positions : Front: L R
Sampling rate : 44.1 KHz
Compression mode : Lossy
Stream size : 140 MiB (5%)

 

 

 

 

 

 
Name: Pancrase.295.720p.WEB.h264-SF63
Release: Apr 15, 2018
Source: WEB
Encoder: Sajjad Fazli
Video: MPEG4 (H264) 1280×720 2793kbps 29.970fps
Audio: AAC 48000Hz stereo 126kbps
File size: 5.17 GiB
Duration: 4h 13min 2s
 

 

 

 

 

 

 

 

 

 

 

Pancrase 295 WEB SF63 /720p Watch /Download

 

 

 

 

Watch online

 

 

Waiting finish converting video

 

 

Server 1

 

 

 

 

 

 

 

 

 

 

 

 

 

 

 

 

 

 

 

Server 2

 

 

 

 

 

 


 

 

 

 

Uploaded By Site DX-TV.com

 

 

 

open rar file to see this password

 

 

 

 

The password is : DX-TV.com

 

 

 

 

400p+720p

 

 

 

 

 

Uploaded.net + rapidgator.net

 

 

 

 

 

 

http://shrt10.com/Gqxk

 

 

http://shrt10.com/4Lj3z

 

 

http://shrt10.com/BS2y

 

 

http://shrt10.com/6iOs18Dc

 

http://shrt10.com/eYS7tcK2

 

http://shrt10.com/MtKfc

 

 

 

 

 

 

 

 

 

 

Pancrase 295 WEB SF63 /720p Watch /Download

Leave a Reply

Be the First to Comment!

  Subscribe  
Notify of
Support HVIPS

Please Disable Ad-Block To View This site. just help us to continue this work