OTT Wrestling Presents Live in Belfast 2018 Watch / Download

OTT Wrestling Presents Live in Belfast 2018 Watch / Download

 

 

 

 


dx-tv.com

 

 

 

 

 
Complete name : Over The Top Wrestling Presents Live in Belfast (540p).mp4
Format : MPEG-4
Format profile : Base Media / Version 2
Codec ID : mp42
File size : 2.05 GiB
Duration : 2h 47mn
Overall bit rate : 1 753 Kbps
Encoded date : UTC 2018-06-10 18:41:53
Tagged date : UTC 2018-06-10 18:41:53

Video
ID : 1
Format : AVC
Format/Info : Advanced Video Codec
Codec ID/Info : Advanced Video Coding
Duration : 2h 47mn
Bit rate mode : Variable
Bit rate : 1 500 Kbps
Width : 960 pixels
Height : 540 pixels
Display aspect ratio : 16:9
Frame rate mode : Constant
Frame rate : 25.000 fps
Color space : YUV
Chroma subsampling : 4:2:0
Bit depth : 8 bits
Scan type : Progressive
Bits/(Pixel*Frame) : 0.116
Stream size : 1.75 GiB (85%)

Audio
ID : 2
Format : AAC
Format/Info : Advanced Audio Codec
Format profile : LC
Codec ID : 40
Duration : 2h 47mn
Bit rate mode : Variable
Bit rate : 256 Kbps
Channel(s) : 2 channels
Channel positions : Front: L R
Sampling rate : 48.0 KHz
Compression mode : Lossy
Stream size : 306 MiB (15%)
Encoded date : UTC 2018-06-10 18:41:53
Tagged date : UTC 2018-06-10 18:41:53

 

 

 

 

OTT Wrestling Presents Live in Belfast 2018 Watch / Download

 

 

 

 

Watch online

 

 

Waiting finish converting video

 

 

Server 1

 

 

 

 

 

 

 

 

 

 

 

 

 

 

 

 

Server 2

 

 

 

 

 

 


 

 

 

 

Uploaded By Site DX-TV.com

 

 

 

open rar file to see this password

 

 

 

 

The password : DX-TV.com

 

 

 

 

 

Uploaded.net + rapidgator.net

 

 

 

http://shrt10.com/lXzpP

 

 

 

 

http://shrt10.com/Bymnt

 

 

 

 

 

OTT Wrestling Presents Live in Belfast 2018 Watch / Download