ONE championship Grit And Glory 2018 05 12 WEB DL x264 DX-TV /720p Watch /Download

ONE championship Grit And Glory 2018 05 12 WEB DL x264 DX-TV /720p Watch /Download

 

 

 

 

 

 

dx-tv

 

 

 

 

 

 

Complete name : ONE.championship.Grit.And.Glory.2018..05.12.WEB DL x264 DX-TV.m4v
Format : MPEG-4
Format profile : Base Media / Version 2
Codec ID : mp42
File size : 3.36 GiB
Duration : 4h 53mn

Video
ID : 1
Format : AVC
Format/Info : Advanced Video Codec
Codec ID : avc1
Codec ID/Info : Advanced Video Coding
Duration : 4h 53mn
Bit rate mode : Variable
Bit rate : 1 500 Kbps
Width : 720 pixels
Height : 480 pixels
Display aspect ratio : 3:2
Frame rate mode : Variable
Frame rate : 25.000 fps
Minimum frame rate : 15.873 fps
Maximum frame rate : 25.000 fps
Standard : NTSC
Color space : YUV
Chroma subsampling : 4:2:0
Bit depth : 8 bits
Scan type : Progressive
Bits/(Pixel*Frame) : 0.174
Stream size : 3.08 GiB (92%)

Audio
ID : 2
Format : AAC
Format/Info : Advanced Audio Codec
Format profile : LC
Codec ID : 40
Duration : 4h 53mn
Bit rate mode : Variable
Bit rate : 128 Kbps
Channel(s) : 2 channels
Channel positions : Front: L R
Sampling rate : 44.1 KHz
Compression mode : Lossy
Stream size : 269 MiB (8%)
Title : Stereo
Encoded date : UTC 2018-05-13 08:51:22
Tagged date : UTC 2018-05-13 08:51:22

 

 

 

 

 

 

 

 

[EVENT]………..: ONE championship Grit And Glory 2018 05 12 720p WEB DL x264 DX-TV mp4
[RELEASED]……..: 2018.05.12
[SOURCE]……….: WEB DL 1080p
[CONTAINER]…….: mp4
[SIZE]…………: 3.35 GB
[Capper Group]….: DX-TV
[Duration]……..: 4 h 53 m
[RESOLUTION]……: 1280 x 720 {16:9}@ 30.000 FPS
[VIDEO]………..: x264 @ 3500 kbps
[AUDIO]………..: AAC @ 160 kbps
[language]……..: English
 

 

 

 

 

 

 

 

 

 

ONE championship Grit And Glory 2018 05 12 WEB DL x264 DX-TV /720p Watch /Download

 

 

 

 

Watch online

 

 

Waiting finish converting video

 

 

Server 1

 

 

 

 

 

 

 

 

 

 

 

 

 

 

 

 

 

 

 

Server 2

 

 

 

 

 

 

 

 


 

 

 

 

 

 

 

Uploaded By Site DX-TV.com

 

 

 

open rar file to see this password

 

 

 

 

The password is : DX-TV.com

 

 

 

 

 

 

 

Uploaded.net + rapidgator.net

 

 

 

 

 

 

http://shrt10.com/UF13RYqe
 

 
http://shrt10.com/I6lIV
 

http://shrt10.com/Dwa1V
 

http://shrt10.com/b35W1iDn
 

http://shrt10.com/qAFjWQW
 

http://shrt10.com/0lusX
 

 
http://shrt10.com/Gzvmghk

http://shrt10.com/H5vi6ePI
 

 

 

 

 

 

 

 

 

 

 

ONE championship Grit And Glory 2018 05 12 WEB DL x264 DX-TV /720p Watch /Download