MMA BAMMA 35 Lohore Vs Pascu Full Event 720p ENG Watch / Download

MMA BAMMA 35 Lohore Vs Pascu Full Event 720p ENG Watch / Download

 

 

 

 


 

 

dx-tv.com

 

 

 

 

 

 
Complete name : BAMMA.35.Preliminary.Fights.720p.WEB.DL.x264-ThS.mp4
Format : MPEG-4
Format profile : Base Media
Codec ID : isom
File size : 1.09 GiB
Duration : 1h 36mn
Overall bit rate : 1 611 Kbps

Video
ID : 1
Format : AVC
Format/Info : Advanced Video Codec
Codec ID : avc1
Codec ID/Info : Advanced Video Coding
Duration : 1h 36mn
Bit rate mode : Variable
Bit rate : 1 540 Kbps
Width : 1 280 pixels
Height : 720 pixels
Display aspect ratio : 16:9
Frame rate mode : Variable
Frame rate : 30.000 fps
Minimum frame rate : 29.412 fps
Maximum frame rate : 30.303 fps
Color space : YUV
Chroma subsampling : 4:2:0
Bit depth : 8 bits
Scan type : Progressive
Bits/(Pixel*Frame) : 0.056
Stream size : 1.04 GiB (96%)

Audio
ID : 2
Format : AAC
Format/Info : Advanced Audio Codec
Format profile : HE-AAC / LC
Codec ID : 40
Duration : 1h 36mn
Bit rate mode : Constant
Bit rate : 64.0 Kbps
Channel(s) : 2 channels
Channel positions : Front: L R
Sampling rate : 48.0 KHz / 24.0 KHz
Compression mode : Lossy
Stream size : 44.2 MiB (4%)

 

 

 

 

 

 

 
Complete name : B\BAMMA.35.720p.WEB.DL.x264-ThS.mp4
Format : MPEG-4
Codec ID : mp42
File size : 1.73 GiB
Duration : 1h 56mn
Overall bit rate : 2 127 Kbps

Video
ID : 1
Duration : 1h 56mn
Bit rate mode : Variable
Bit rate : 1 998 Kbps
Width : 1 280 pixels
Height : 720 pixels
Display aspect ratio : 16:9
Frame rate mode : Variable
Frame rate : 24.408 fps
Minimum frame rate : 0.130 fps
Maximum frame rate : 72.058 fps
Color space : YUV
Chroma subsampling : 4:2:0
Bit depth : 8 bits
Scan type : Progressive
Bits/(Pixel*Frame) : 0.089
Stream size : 1.62 GiB (94%)

Audio
ID : 2
Format/Info : Advanced Audio Codec
Format profile : LC
Codec ID : 40
Duration : 1h 56mn
Bit rate mode : Variable
Bit rate : 124 Kbps
Channel(s) : 2 channels
Channel positions : Front: L R
Sampling rate : 44.1 KHz
Compression mode : Lossy
Stream size : 103 MiB (6%)

 

 

 

 

MMA BAMMA 35 Lohore Vs Pascu Full Event 720p ENG Watch / Download

 

 

 

 

Watch online

 

 

Waiting finish converting video

 

 

Server 1

 

 

 

 

 

 

 

 

 

 

 

 

 

 

 

 

 

 

 

 

 

 

 

 

 

Server 2

 

 

 

 

 

 

 


 

 

 

 

 

 

 


 

 

 

 

 

 

Uploaded By Site DX-TV.com

 

 

 

open rar file to see this password

 

 

 

 

The password is : DX-TV.com

 

 

 

 

 

 

 

Uploaded.net + rapidgator.net

 

 

 

 

 

http://shrt10.com/cZMCH

 

 

 

 

http://shrt10.com/mz6QDxdL

 

 

 

 

 

 

 

 

MMA BAMMA 35 Lohore Vs Pascu Full Event 720p ENG Watch / Download

Support HVIPS

Please Disable Ad-Block To View This site. just help us to continue this work