MLW Fusion 2018 07 06 Episode 12 Boiler Room Brawl 720p WEB NCMP Watch / Download

MLW Fusion 2018 07 06 Episode 12 Boiler Room Brawl 720p WEB NCMP Watch / Download

 

 

 

 


 

 

 

dx-tv.com

 

 

 

 

 

Complete name : MLW.Fusion.2018.07.06.Episode.12.Boiler.Room.Brawl.720p.WEB.h264-NCMP.mp4
Format : MPEG-4
Format profile : Base Media / Version 2
Codec ID : mp42
File size : 699 MiB
Duration : 50mn 33s
Overall bit rate : 1 934 Kbps
Encoded date : UTC 2018-07-08 04:59:52
Tagged date : UTC 2018-07-08 04:59:52

Video
ID : 1
Format : AVC
Format/Info : Advanced Video Codec
Codec ID : avc1
Codec ID/Info : Advanced Video Coding
Duration : 50mn 33s
Bit rate mode : Variable
Bit rate : 1 804 Kbps
Width : 1 280 pixels
Height : 720 pixels
Display aspect ratio : 16:9
Frame rate mode : Constant
Frame rate : 30.000 fps
Color space : YUV
Chroma subsampling : 4:2:0
Bit depth : 8 bits
Scan type : Progressive
Bits/(Pixel*Frame) : 0.065
Stream size : 653 MiB (93%)

Audio
ID : 2
Format : AAC
Format/Info : Advanced Audio Codec
Format profile : LC
Codec ID : 40
Duration : 50mn 33s
Bit rate mode : Variable
Bit rate : 126 Kbps
Channel(s) : 2 channels
Channel positions : Front: L R
Sampling rate : 44.1 KHz
Compression mode : Lossy
Stream size : 45.4 MiB (6%)
Language : English
Encoded date : UTC 2018-07-08 04:59:52
Tagged date : UTC 2018-07-08 04:59:52

 

 

 

 

 

 

MLW Fusion 2018 07 06 Episode 12 Boiler Room Brawl 720p WEB NCMP Watch / Download

 

 

 

 

Watch online

 

 

Waiting finish converting video

 

 

Server 1

 

 

 

 

 

 

 

 

 

 

 

 

 

Server 2

 

 

 

 

 


 

 

 

 

 

 

Uploaded By Site DX-TV.com

 

 

 

open rar file to see this password

 

 

 

 

The password : DX-TV.com

 

 

 

 

Uploaded.net + rapidgator.net

 

 

 

 

 
http://shrt10.com/Mw7s

 
http://shrt10.com/DDtz8zUH
 

 

 

 

MLW Fusion 2018 07 06 Episode 12 Boiler Room Brawl 720p WEB NCMP Watch / Download