MLW Fusion 2018 06 29 Episode 11 Callihans Death March 720 WEB NCMP Watch / Download

MLW Fusion 2018 06 29 Episode 11 Callihans Death March 720 WEB NCMP Watch / Download

 

 

 

 


 

 

 

dx-tv.com

 

 

 

 

 

Complete name : MLW.Fusion.2018.06.29.Episode.11.Callihans.Death.March.720p.WEB.h264-NCMP.mp4
Format : MPEG-4
Format profile : Base Media / Version 2
Codec ID : mp42
File size : 725 MiB
Duration : 49mn 30s
Overall bit rate : 2 047 Kbps
Encoded date : UTC 2018-07-01 02:27:51
Tagged date : UTC 2018-07-01 02:27:51

Video
ID : 1
Format : AVC
Format/Info : Advanced Video Codec
Codec ID : avc1
Codec ID/Info : Advanced Video Coding
Duration : 49mn 30s
Bit rate mode : Variable
Bit rate : 1 917 Kbps
Width : 1 280 pixels
Height : 720 pixels
Display aspect ratio : 16:9
Frame rate mode : Constant
Frame rate : 30.000 fps
Color space : YUV
Chroma subsampling : 4:2:0
Bit depth : 8 bits
Scan type : Progressive
Bits/(Pixel*Frame) : 0.069
Stream size : 679 MiB (94%)

Audio
ID : 2
Format : AAC
Format/Info : Advanced Audio Codec
Format profile : LC
Codec ID : 40
Duration : 49mn 30s
Bit rate mode : Variable
Bit rate : 126 Kbps
Channel(s) : 2 channels
Channel positions : Front: L R
Sampling rate : 44.1 KHz
Compression mode : Lossy
Stream size : 44.5 MiB (6%)
Language : English
Encoded date : UTC 2018-07-01 02:27:51
Tagged date : UTC 2018-07-01 02:27:51

 

 

 

 

 

MLW Fusion 2018 06 29 Episode 11 Callihans Death March 720 WEB NCMP Watch / Download

 

 

 

 

Watch online

 

 

Waiting finish converting video

 

 

Server 1

 

 

 

 

 

 

 

 

 

 

 

 

 

 

Server 2

 

 

 

 

 

 

 


 

 

 

 

 

Uploaded By Site DX-TV.com

 

 

 

open rar file to see this password

 

 

 

 

The password : DX-TV.com

 

 

 

 

Uploaded.net + rapidgator.net

 

 

 

 

 

 

 

 
http://shrt10.com/5Z8oeIyb

 
http://shrt10.com/YA737cdl
 

 

 

 

 

 

 

 

 

MLW Fusion 2018 06 29 Episode 11 Callihans Death March 720 WEB NCMP Watch / Download

Support HVIPS

Please Disable Ad-Block To View This site. just help us to continue this work