Lucha Underground S04E01 1080p WEB DL Watch /Download

Lucha Underground S04E01 1080p WEB DL Watch /Download

 

 

 

 

 

 

dx-tv

 

 

 

 

 

Lucha Underground S04E01 1080p WEB DL

Format : MPEG-4
Format profile : Base Media / Version 2
Codec ID : mp42 (mp42/isom)
File size : 1.67 GiB
Duration : 45 min 6 s
Overall bit rate mode : Variable
Overall bit rate : 5 291 kb/s
Cover : Yes

Video
ID : 2
Format : AVC
Format/Info : Advanced Video Codec
Codec ID : avc1
Codec ID/Info : Advanced Video Coding
Duration : 45 min 6 s
Bit rate : 5 162 kb/s
Width : 1 430 pixels
Height : 1 068 pixels
Display aspect ratio : 16:9
Frame rate mode : Constant
Frame rate : 29.970 (30000/1001) FPS
Color space : YUV
Chroma subsampling : 4:2:0
Bit depth : 8 bits
Scan type : Progressive
Bits/(Pixel*Frame) : 0.113
Stream size : 1.63 GiB (98%)
Language : English
Encoded date : UTC 2018-06-14 08:18:58
Tagged date : UTC 2018-06-14 08:20:58
Color range : Limited
Color primaries : BT.709
Transfer characteristics : BT.709
Matrix coefficients : BT.709

Audio
ID : 1
Format : AAC
Format/Info : Advanced Audio Codec
Format profile : LC
Codec ID : 40
Duration : 45 min 6 s
Bit rate mode : Variable
Bit rate : 124 kb/s
Maximum bit rate : 184 kb/s
Channel(s) : 2 channels
Channel positions : Front: L R
Sampling rate : 48.0 kHz
Frame rate : 46.875 FPS (1024 SPF)
Compression mode : Lossy
Stream size : 40.2 MiB (2%)
Language : English
Default : Yes
Alternate group : 1
Encoded date : UTC 2018-06-14 08:18:58
Tagged date : UTC 2018-06-14 08:20:58
 

 

 

 

 

 

 

Lucha Underground S04E01 1080p WEB DL Watch /Download

 

 

 

 

Watch online

 

 

Waiting finish converting video

 

 

Server 1

 

 

 

 

 

 

 

 

 

 

 

 

 

 

 

 

Server 2

 

 

 

 

 

 

 

 


 

 

 

 

 

 

 

 

 

Uploaded By Site DX-TV.com

 

 

 

open rar file to see this password

 

 

 

 

The password is : DX-TV.com

 

 

 

 

1080p

 

 

 

 

 

Uploaded.net + rapidgator.net

 

 

 

 

 

 

 

http://shrt10.com/qGj2rz

 

 

 

 

 

http://shrt10.com/yNZ5tBp

 

 

 

 

 

 

 

 

Lucha Underground S04E01 1080p WEB DL Watch /Download

Support HVIPS

Please Disable Ad-Block To View This site. just help us to continue this work