KC Back to the Territories All Japan with Stan Hansen Watch / Download

KC Back to the Territories All Japan with Stan Hansen Watch / Download

 

 

 

 


 

 

 

dx-tv.com

 

 

 

 

 
Complete name : KC Back to the Territories – All Japan with Stan Hansen.mp4
Format : MPEG-4
Format profile : Base Media
Codec ID : isom
File size : 1.59 GiB
Duration : 2h 24mn
Overall bit rate : 1 570 Kbps
Encoded date : UTC 2017-02-17 20:13:45

Video
ID : 1
Format : AVC
Format/Info : Advanced Video Codec
Codec ID : avc1
Codec ID/Info : Advanced Video Coding
Duration : 2h 24mn
Bit rate mode : Variable
Bit rate : 1 409 Kbps
Maximum bit rate : 6 050 Kbps
Width : 640 pixels
Height : 360 pixels
Display aspect ratio : 16:9
Frame rate mode : Constant
Frame rate : 29.970 fps
Color space : YUV
Chroma subsampling : 4:2:0
Bit depth : 8 bits
Scan type : Progressive
Bits/(Pixel*Frame) : 0.204
Stream size : 1.42 GiB (90%)

Audio
ID : 2
Format : AAC
Format/Info : Advanced Audio Codec
Format profile : LC
Codec ID : 40
Duration : 2h 24mn
Bit rate mode : Variable
Bit rate : 156 Kbps
Maximum bit rate : 195 Kbps
Channel(s) : 2 channels
Channel positions : Front: L R
Sampling rate : 48.0 KHz
Compression mode : Lossy
Stream size : 161 MiB (10%)
Encoded date : UTC 2017-02-17 18:59:31
Tagged date : UTC 2017-02-17 20:16:08

 

 

 

KC Back to the Territories All Japan with Stan Hansen Watch / Download

 

 

 

 

Watch online

 

 

Waiting finish converting video

 

 

Server 1

 

 

 

 

 

 

 

 

 

 

 

 

Server 2

 

 

 

 

 

 


 

 

 

 

 

Uploaded By Site DX-TV.com

 

 

 

open rar file to see this password

 

 

 

 

The password : DX-TV.com

 

 

 

 

 

Uploaded.net + rapidgator.net

 

 

 

 

 

 

 
http://shrt10.com/ETbk8x

 
http://shrt10.com/KfDlEmO

 

 

 

 

KC Back to the Territories All Japan with Stan Hansen Watch / Download

This site uses Akismet to reduce spam. Learn how your comment data is processed.

Support HVIPS

Please Disable Ad-Block To View This site. just help us to continue this work